Loading...
Error

Убийство в Восточном экспрессе / Murder on the Orient Express (Кеннет Брана / Kenneth Branagh) [2017 г., драма, криминал, детектив, BDRemux 1080p] Dub (Rus.iTunes) + MVO (Rus.GreenРай Studio) + Dub (Ukr.Postmodern) + Original (Eng)

Статистика раздачи
Размер:  22,72 GB   |    Зарегистрирован:  4 месяца 1 день   |    Скачан:  7 раз

Полного источника не было: 10 дней

Сидов:  0  |  0 KB/s  ]   Личеров:  0  |  0 KB/s  ]

* - сиды/пиры с внешних источников

   
 
Автор Сообщение

90ytr90 

23-Фев-2018 03:56

Убийство в Восточном экспрессе / Murder on the Orient Express
«Под подозрением каждый»

Страна: США, Великобритания, Мальта, Канада
Год выпуска: 2017
Жанр: драма, криминал, детектив
Продолжительность: 01:53:55
Озвучивание:
  • любительское (многоголосое закадровое) [русский (GreenРай Studio)]
  • профессиональное (полное дублирование) [украинский (студия Postmodern)]
  • оригинальная звуковая дорожка [английский]
  • профессиональное (полное дублирование) [русский (iTunes)]

Режиссёр: Кеннет Брана / Kenneth Branagh

В ролях: Кеннет Брана, Пенелопа Крус, Уиллем Дефо, Джуди Денч, Джонни Депп, Джош Гад, Дерек Джекоби, Лесли Одом мл., Мишель Пфайффер, Дэйзи Ридли


Сюжет фильма:
Путешествие на одном из самых роскошных поездов Европы неожиданно превращается в одну из самых стильных и захватывающих загадок в истории. Фильм рассказывает историю тринадцати пассажиров поезда, каждый из которых находится под подозрением. И только сыщик должен как можно быстрее разгадать головоломку, прежде чем преступник нанесет новый удар.

  • Дата мировой премьеры: 3 ноября 2017
  • Дата российской премьеры: 9 ноября 2017, «Двадцатый Век Фокс СНГ»
             
Качество видео: BDRemux 1080p
Формат: MKV
Видео: AVC, 1920x1080 (16:9), 29.5 Mbps, 23.976 (24000/1001)fps, 0.477 bit/pixel
Аудио #1: AC3, 192 kbps, 2 ch, 48 kHz, MVO [Russian.GreenРай Studio]
Аудио #2: AC3, 192 kbps, 2 ch, 48 kHz, Dub [Ukrainian.студия Postmodern]
Аудио #3: DTS-HD MA/ES, 4061/1509 kbps, 8/6 ch, 48 kHz
Аудио #4: AC3, 384 kbps, 6 ch, 48 kHz, Dub [Russian.iTunes]
Субтитры: English (full), Russian (forced, full)
Навигация по главам: есть (24)

Сборка Silverok
General
Unique ID : 332447879414705274779096907159187597349 (0xFA1B21F18092FD1F60DF1E72351DA825)
Complete name : D:uTorrentUbiystvo.v.vostochnom.ekspresse.2017.BDRemux.1080p.MediaClub.mkv
Format : Matroska
Format version : Version 4 / Version 2
File size : 22.7 GiB
Duration : 1 h 53 min
Overall bit rate mode : Variable
Overall bit rate : 28.5 Mb/s
Encoded date : UTC 2018-02-22 21:36:21
Writing application : mkvmerge v19.0.0 ('Brave Captain') 64-bit
Writing library : libebml v1.3.5 + libmatroska v1.4.8
Cover : Yes
Attachments : cover.jpg

Video
ID : 1
Format : AVC
Format/Info : Advanced Video Codec
Format profile : High@L4.1
Format settings : CABAC / 4 Ref Frames
Format settings, CABAC : Yes
Format settings, RefFrames : 4 frames
Codec ID : V_MPEG4/ISO/AVC
Duration : 1 h 53 min
Bit rate mode : Variable
Bit rate : 23.7 Mb/s
Maximum bit rate : 29.5 Mb/s
Width : 1 920 pixels
Height : 1 080 pixels
Display aspect ratio : 16:9
Frame rate mode : Constant
Frame rate : 23.976 (24000/1001) FPS
Color space : YUV
Chroma subsampling : 4:2:0
Bit depth : 8 bits
Scan type : Progressive
Bits/(Pixel*Frame) : 0.477
Stream size : 18.9 GiB (83%)
Title : BDRemux by Silverok
Default : Yes
Forced : No

Audio #1
ID : 2
Format : AC-3
Format/Info : Audio Coding 3
Codec ID : A_AC3
Duration : 1 h 53 min
Bit rate mode : Constant
Bit rate : 192 kb/s
Channel(s) : 2 channels
Channel positions : Front: L R
Sampling rate : 48.0 kHz
Frame rate : 31.250 FPS (1536 SPF)
Bit depth : 16 bits
Compression mode : Lossy
Stream size : 156 MiB (1%)
Title : Любительский многоголосый (GreenРай Studio)
Language : Russian
Service kind : Complete Main
Default : No
Forced : No

Audio #2
ID : 3
Format : AC-3
Format/Info : Audio Coding 3
Codec ID : A_AC3
Duration : 1 h 53 min
Bit rate mode : Constant
Bit rate : 192 kb/s
Channel(s) : 2 channels
Channel positions : Front: L R
Sampling rate : 48.0 kHz
Frame rate : 31.250 FPS (1536 SPF)
Bit depth : 16 bits
Compression mode : Lossy
Stream size : 156 MiB (1%)
Title : Дублированный (Студия «Postmodern)
Language : Ukrainian
Service kind : Complete Main
Default : No
Forced : No

Audio #3
ID : 4
Format : DTS
Format/Info : Digital Theater Systems
Format profile : MA / ES Matrix / Core
Codec ID : A_DTS
Duration : 1 h 53 min
Bit rate mode : Variable / Constant / Constant
Bit rate : 4 061 kb/s / 1 509 kb/s / 1 509 kb/s
Channel(s) : 8 channels / 7 channels / 6 channels
Channel positions : Front: L C R, Side: L R, Back: L R, LFE / Front: L C R, Side: L R, Back: C, LFE / Front: L C R, Side: L R, LFE
Sampling rate : 48.0 kHz
Frame rate : 93.750 FPS (512 SPF)
Bit depth : 24 bits
Compression mode : Lossless / Lossy / Lossy
Stream size : 3.23 GiB (14%)
Language : English
Default : No
Forced : No

Audio #4
ID : 6
Format : AC-3
Format/Info : Audio Coding 3
Codec ID : A_AC3
Duration : 1 h 53 min
Bit rate mode : Constant
Bit rate : 384 kb/s
Channel(s) : 6 channels
Channel positions : Front: L C R, Side: L R, LFE
Sampling rate : 48.0 kHz
Frame rate : 31.250 FPS (1536 SPF)
Bit depth : 16 bits
Compression mode : Lossy
Stream size : 313 MiB (1%)
Title : Дублированное [iTunes]
Language : Russian
Service kind : Complete Main
Default : Yes
Forced : No

Text #1
ID : 5
Format : UTF-8
Codec ID : S_TEXT/UTF8
Codec ID/Info : UTF-8 Plain Text
Duration : 1 h 44 min
Bit rate : 72 b/s
Count of elements : 1844
Stream size : 55.5 KiB (0%)
Title : Full
Language : English
Default : No
Forced : No

Text #2
ID : 7
Format : UTF-8
Codec ID : S_TEXT/UTF8
Codec ID/Info : UTF-8 Plain Text
Duration : 1 h 36 min
Bit rate : 1 b/s
Count of elements : 32
Stream size : 1.16 KiB (0%)
Title : Forced
Language : Russian
Default : No
Forced : Yes

Text #3
ID : 8
Format : UTF-8
Codec ID : S_TEXT/UTF8
Codec ID/Info : UTF-8 Plain Text
Duration : 1 h 53 min
Bit rate : 108 b/s
Count of elements : 1606
Stream size : 90.1 KiB (0%)
Title : Full
Language : Russian
Default : No
Forced : No

Menu
00:00:00.000 : en:00:00:00.000
00:03:06.144 : en:00:03:06.144
00:06:42.193 : en:00:06:42.193
00:11:44.746 : en:00:11:44.746
00:18:26.188 : en:00:18:26.188
00:24:53.659 : en:00:24:53.659
00:33:14.159 : en:00:33:14.159
00:37:47.515 : en:00:37:47.515
00:43:16.511 : en:00:43:16.511
00:46:24.865 : en:00:46:24.865
00:51:23.580 : en:00:51:23.580
00:55:52.015 : en:00:55:52.015
01:00:03.183 : en:01:00:03.183
01:05:39.227 : en:01:05:39.227
01:10:40.153 : en:01:10:40.153
01:14:17.578 : en:01:14:17.578
01:18:05.055 : en:01:18:05.055
01:21:12.284 : en:01:21:12.284
01:24:39.366 : en:01:24:39.366
01:28:37.854 : en:01:28:37.854
01:32:28.376 : en:01:32:28.376
01:37:04.652 : en:01:37:04.652
01:40:30.024 : en:01:40:30.024
01:46:49.903 : en:01:46:49.903


pic pic pic
Для увеличения картинки щелкните мышкой по превью



pic pic pic pic pic pic

Этот торрент недоступен для скачивания без регистрации, однако доступен по публичной magnet-ссылке (источники с публичных трекеров). Перед использованием ссылки прочтите, пожалуйста Пользовательское соглашение, а также как можно дольше оставайтесь на раздаче! Для того, чтобы скачать сам торрент-файл (который видит больше источников), а также для того, чтобы поблагодарить релизера, вам необходимо зарегистрироваться. Если регистрироваться лень - вы можете также попробовать скачать релиз по нашим партнерским ссылкам ниже. Кроме того, зарегистрированным пользователям не показывается всплывающая реклама при скачивании.

[underverse.me].t97737.torrent
Трекер: Зарегистрирован   [ 23.02.2018 03:56 ]  

Статус: T временная (by 90ytr90 at 23.02.2018 05:35)
Поблагодарили: пока никто не поблагодарил...
Тип торрента: публичный - доступные источники с открытых трекеров: 
Размер: 22,72 GB (занимает 5,19 DVDR, для записи нужно 6 болванок DVDR/RW)
 
 
Похожие темы
Форум Тема Автор Торрент Отв. Посл. сооб.
T Зарубежное кино [DVDRip, Low-Res HDRip, и т.д.] Убийство в Миссисипи / Mississippi Murder (Прайс Холл) [2017 г., триллер, криминал, детектив, WEB-DLRip] MVO (GreenРай Studio) makkol
2 | 1

0 | 904

10

07.05.2017 10:45

Зарубежное кино [DVDRip, Low-Res HDRip, и т.д.] Убийство в Бургундии / Meurtres en Bourgogne (Жером Наварро) [2015 г., криминал, HDTVRip] MVO (Игмар) makkol
0 | 0

0 | 715

10

07.03.2017 21:49

Зарубежное кино [DVDRip, Low-Res HDRip, и т.д.] Убийство в Рокамадуре / Meurtres a Rocamadour (Лионель Байю) [2014 г., детектив, криминал, HDTVRip] MVO (Игмар) makkol
7 | 0

0 | 822

5

30.08.2017 22:19

T Зарубежное кино [DVDRip, Low-Res HDRip, и т.д.] Убийство в Восточном экспрессе / Murder on the Orient Express (Кеннет Брана) [2017 г., драма, криминал, детектив, HDTVRip] Dub (звук с TS) makkol
63 | 2

0 | 1286

35

14.01.2018 22:20

T Зарубежное кино [DVDRip, Low-Res HDRip, и т.д.] Убийство в Восточном экспрессе / Murder on the Orient Express (Кеннет Брана) [2017 г., драма, криминал, детектив, HDTVRip] MVO (@MUZOBOZ@) makkol
49 | 3

0 | 1339

66

18.01.2018 15:36

T Зарубежное кино [DVDRip, Low-Res HDRip, и т.д.] Убийство в Восточном экспрессе / Murder on the Orient Express (Кеннет Брана) [2017 г., драма, криминал, детектив, HDTVRip] Dub (Line) makkol
10 | 7

0 | 1024

59

03.02.2018 10:22

T Зарубежное кино [DVDRip, Low-Res HDRip, и т.д.] Убийство в Восточном экспрессе / Murder on the Orient Express (Кеннет Брана) [2017 г., драма, криминал, детектив, HDRip] Dub (Line) makkol
14 | 2

0 | 769

44

09.02.2018 21:06

Зарубежное кино [DVDRip, Low-Res HDRip, и т.д.] Убийство в Восточном экспрессе / Murder on the Orient Express (Кеннет Брана / Kenneth Branagh) [2017 г., драма, криминал, детектив, HDRip] MVO (GreenРай Studio) + Original (Eng) + Sub (Eng) 90ytr90
10 | 0

0 | 1681

55

11.02.2018 07:51

T Зарубежное кино [DVDRip, Low-Res HDRip, и т.д.] Убийство в Восточном экспрессе / Murder on the Orient Express (Кеннет Брана / Kenneth Branagh) [2017 г., драма, криминал, детектив, BDRip] Dub (iTunes) + Sub (Rus) 90ytr90
143 | 4

0 | 1429

37

23.02.2018 03:52

T Зарубежное кино [DVDRip, Low-Res HDRip, и т.д.] Убийство в Восточном экспрессе / Murder on the Orient Express (Кеннет Брана / Kenneth Branagh) [2017 г., драма, криминал, детектив, BDRip-AVC] Dub (iTunes) + Original (Eng) + Sub (Rus, Eng) 90ytr90
30 | 0

0 | 674

23

23.02.2018 04:25


Яндекс.Метрика powered by Sphinx


В Н И М А Н И Е
Сайт не распространяет и не хранит электронные версии произведений, а лишь бесплатно и без коммерческой выгоды (не требуя взамен платы,
SMS и т.д.) предоставляет доступ к создаваемому пользователями каталогу ссылок на торрент-файлы, которые содержат только списки хеш-сумм.
Убедительная просьба с жалобами обращаться напрямую к пользователю, разместившему торрент файл.

Вверх