Loading...
Error

Афера доктора Нока / Knock (Лоррэйн Леви) [2017 г., комедия, BDRemux 1080p] Dub (iTunes) + Original (Fre) + Sub (Fre)

Статистика раздачи
Размер:  31,04 GB   |    Зарегистрирован:  3 месяца 26 дней   |    Скачан:  7 раз

Полного источника не было: 3 месяца 1 день

Сидов:  0  |  0 KB/s  ]   Личеров:  0  |  0 KB/s  ]

* - сиды/пиры с внешних источников

   
 
Автор Сообщение

90ytr90 

23-Фев-2018 10:00

Афера доктора Нока / Knock

Страна: Франция, Бельгия / Canal +
Год выпуска: 2017
Жанр: комедия
Продолжительность: 01:54:01
Озвучивание:
  • профессиональное (полное дублирование) [iTunes]
  • оригинальная звуковая дорожка [французский]

Режиссёр: Лоррэйн Леви / Lorraine Lévy

В ролях: Омар Си, Алекс Лутс, Ана Жирардо, Сабин Азема, Паскаль Элбе, Одри Дана, Мишель Вюйермоз, Кристиан Эк, Элен Венсан, Андреа Ферреоль


Сюжет фильма:
1950-е. Карманник и авантюрист Нок, скрываясь от «коллег» в небольшом французском городке Сен-Морис, притворяется лицензированным врачом. Он придумал хитрый, но простой план, как не остаться без средств к существованию: лечить здоровых людей от несуществующих у них болезней. Нок — мастер в искусстве манипуляции и соблазнения — почти достиг желанной цели, если бы не два небольших затруднения: он влюбился, а на пороге неожиданно появился друг из прошлого, который намерен рассказать всю правду о докторе.

  • Дата мировой премьеры: 18 октября 2017
  • Дата российской премьеры: 9 ноября 2017, «MEGOGO Distribution»
  • Цифровой релиз: 20 февраля 2018, «Megogo Distribution»
             
Качество видео: BDRemux 1080p
Формат: MKV
Видео: AVC, 1920x1080, ~35 Mbps, 23.976 fps
Аудио #1: AC3, 384 kbps, 6 ch, 48 kHz, Dub [iTunes]
Аудио #2: DTS HD MA, ~3618/1509 kbps, 6 ch, 48 kHz, Original [French]
Субтитры: French
Навигация по главам: есть (13)
Общее
Уникальный идентификатор : 237277312504074180144283646751579109250 (0xB281F2B87C6840D59524191FB850F782)
Полное имя : Knock.2017.BDRemux.mkv
Формат : Matroska
Версия формата : Version 4 / Version 2
Размер файла : 31,0 Гбайт
Продолжительность : 1 ч. 54 м.
Режим общего битрейта : Переменный
Общий поток : 39,0 Мбит/сек
Название фильма : Knock.2017.BDRemux
Дата кодирования : UTC 2018-02-19 21:26:38
Программа кодирования : mkvmerge v17.0.0 ('Be Ur Friend') 64-bit
Библиотека кодирования : libebml v1.3.5 + libmatroska v1.4.8

Видео
Идентификатор : 1
Формат : AVC
Формат/Информация : Advanced Video Codec
Профиль формата : High@L4.1
Настройки формата : CABAC / 3 Ref Frames
Параметр CABAC формата : Да
Параметр RefFrames формата : 3 кадра
Идентификатор кодека : V_MPEG4/ISO/AVC
Продолжительность : 1 ч. 54 м.
Вид битрейта : Переменный
Битрейт : 35,0 Мбит/сек
Максимальный битрейт : 39,0 Мбит/сек
Ширина : 1920 пикселей
Высота : 1080 пикселей
Соотношение сторон : 16:9
Режим частоты кадров : Постоянный
Частота кадров : 23,976 (24000/1001) кадра/сек
Цветовое пространство : YUV
Субдискретизация насыщенности : 4:2:0
Битовая глубина : 8 бит
Тип развёртки : Прогрессивная
Бит/(Пиксели*Кадры) : 0.704
Размер потока : 27,8 Гбайт (90%)
Библиотека кодирования : x264 core 146 r2538 121396c
Настройки программы : cabac=1 / ref=4 / deblock=1:-1:-1 / analyse=0x3:0x133 / me=umh / subme=10 / psy=1 / psy_rd=1.00:0.15 / mixed_ref=1 / me_range=24 / chroma_me=1 / trellis=2 / 8x8dct=1 / cqm=0 / deadzone=21,11 / fast_pskip=1 / chroma_qp_offset=-3 / threads=48 / lookahead_threads=4 / sliced_threads=0 / slices=4 / nr=0 / decimate=1 / interlaced=0 / bluray_compat=1 / constrained_intra=0 / bframes=3 / b_pyramid=1 / b_adapt=2 / b_bias=0 / direct=3 / weightb=1 / open_gop=1 / weightp=1 / keyint=24 / keyint_min=1 / scenecut=40 / intra_refresh=0 / rc_lookahead=24 / rc=2pass / mbtree=1 / bitrate=35000 / ratetol=1.0 / qcomp=0.60 / qpmin=0 / qpmax=69 / qpstep=4 / cplxblur=20.0 / qblur=0.5 / vbv_maxrate=39000 / vbv_bufsize=30000 / nal_hrd=vbr / filler=0 / ip_ratio=1.40 / aq=1:1.00
Язык : French
Default : Да
Forced : Нет
Цветовой диапазон : Limited
Основные цвета : BT.709
Характеристики трансфера : BT.709
Коэффициенты матрицы : BT.709

Аудио #1
Идентификатор : 2
Формат : AC-3
Формат/Информация : Audio Coding 3
Идентификатор кодека : A_AC3
Продолжительность : 1 ч. 54 м.
Вид битрейта : Постоянный
Битрейт : 384 Кбит/сек
Каналы : 6 каналов
Расположение каналов : Front: L C R, Side: L R, LFE
Частота : 48,0 КГц
Частота кадров : 31,250 кадров/сек (1536 SPF)
Битовая глубина : 16 бит
Метод сжатия : С потерями
Размер потока : 313 Мбайт (1%)
Заголовок : DUB | iTunes
Язык : Russian
ServiceKind : Complete Main
Default : Да
Forced : Нет

Аудио #2
Идентификатор : 3
Формат : DTS
Формат/Информация : Digital Theater Systems
Профиль формата : MA / Core
Идентификатор кодека : A_DTS
Продолжительность : 1 ч. 54 м.
Вид битрейта : Переменный / Постоянный
Битрейт : 3618 Кбит/сек / 1509 Кбит/сек
Каналы : 6 каналов
Расположение каналов : Front: L C R, Side: L R, LFE
Частота : 48,0 КГц
Частота кадров : 93,750 кадра/сек (512 SPF)
Битовая глубина : 24 бит
Метод сжатия : Без потерь / Lossy
Размер потока : 2,88 Гбайт (9%)
Язык : French
Default : Нет
Forced : Нет

Текст
Идентификатор : 4
Формат : PGS
Режим смешивания : zlib
Идентификатор кодека : S_HDMV/PGS
Идентификатор кодека/Информация : Picture based subtitle format used on BDs/HD-DVDs
Продолжительность : 1 ч. 53 м.
Битрейт : 36,3 Кбит/сек
ElementCount : 3714
Размер потока : 29,5 Мбайт (0%)
Язык : French
Default : Нет
Forced : Нет

Меню
00:00:00.000 : fr:Chapter 1
00:10:59.950 : fr:Chapter 2
00:22:23.050 : fr:Chapter 3
00:32:14.599 : fr:Chapter 4
00:42:45.062 : fr:Chapter 5
00:53:05.473 : fr:Chapter 6
01:02:24.741 : fr:Chapter 7
01:11:57.521 : fr:Chapter 8
01:22:32.989 : fr:Chapter 9
01:33:03.411 : fr:Chapter 10
01:42:20.217 : fr:Chapter 11
01:50:51.853 : fr:Chapter 12
01:54:01.876 : fr:Chapter 13


pic pic pic
Для увеличения картинки щелкните мышкой по превью



pic pic pic pic

Этот торрент недоступен для скачивания без регистрации, однако доступен по публичной magnet-ссылке (источники с публичных трекеров). Перед использованием ссылки прочтите, пожалуйста Пользовательское соглашение, а также как можно дольше оставайтесь на раздаче! Для того, чтобы скачать сам торрент-файл (который видит больше источников), а также для того, чтобы поблагодарить релизера, вам необходимо зарегистрироваться. Если регистрироваться лень - вы можете также попробовать скачать релиз по нашим партнерским ссылкам ниже. Кроме того, зарегистрированным пользователям не показывается всплывающая реклама при скачивании.

[underverse.me].t97777.torrent
Трекер: Зарегистрирован   [ 23.02.2018 10:00 ]  

Статус: поглощено (by 90ytr90 at 22.03.2018 16:58)
Поблагодарили: 1 человек
Тип торрента: публичный - доступные источники с открытых трекеров: 
Размер: 31,04 GB (занимает 7,09 DVDR, для записи нужно 8 болванок DVDR/RW)
 
 
Похожие темы
Форум Тема Автор Торрент Отв. Посл. сооб.
Зарубежное кино [DVDRip, Low-Res HDRip, и т.д.] Афера доктора Нока / Knock (Лоррэйн Леви) [2017 г., комедия, BDRip] Dub 90ytr90
3 | 1

0 | 183

6

21.03.2018 16:42

Зарубежное кино [DVDRip, Low-Res HDRip, и т.д.] Афера доктора Нока / Knock (Лоррэйн Леви) [2017 г., комедия, BDRip] Dub 90ytr90
23 | 0

0 | 234

10

21.03.2018 18:36

Зарубежное кино [DVDRip, Low-Res HDRip, и т.д.] Афера доктора Нока / Knock (Лоррэйн Леви) [2017 г., комедия, BDRip-AVC] [US Transfer] Dub + Sub (Rus) 90ytr90
13 | 0

0 | 340

5

21.03.2018 18:42

Зарубежное кино [DVDRip, Low-Res HDRip, и т.д.] Афера доктора Нока / Knock (Лоррэйн Леви) [2017 г., комедия, BDRip] Dub 90ytr90
14 | 1

0 | 290

15

21.03.2018 19:06

Зарубежное кино [DVD / HDDVD / BD / Remux] Афера доктора Нока / Knock (Лоррэйн Леви) [2017 г., комедия, BDRemux 1080p] Dub + Original (Fre) + Sub (Rus) 90ytr90
11 | 1

0 | 548

5

22.03.2018 16:52

Зарубежное кино [HDDVDRip / BDRip / WEB-DL / HDTV 1080/720р] Афера доктора Нока / Knock (Лоррэйн Леви) [2017 г., комедия, BDRip 720p] Dub + Original (Fre) + Sub (Rus) 90ytr90
33 | 2

0 | 238

6

22.03.2018 14:16

Зарубежное кино [HDDVDRip / BDRip / WEB-DL / HDTV 1080/720р] Афера доктора Нока / Knock (Лоррэйн Леви) [2017 г., комедия, BDRip 1080p] Dub + Original (Fre) + Sub (Rus) 90ytr90
37 | 0

0 | 309

11

22.03.2018 14:16

Зарубежное кино [HDDVDRip / BDRip / WEB-DL / HDTV 1080/720р] Афера доктора Нока / Knock (Лоррэйн Леви) [2017 г., комедия, BDRip 720p] [US Transfer] Dub + Original (Fre) + Sub (Rus, Fre) 90ytr90
90 | 1

0 | 291

7

22.03.2018 14:19

22-Мар-2018 16:58

Топик был перенесен из форума Зарубежное кино [DVD / HDDVD / BD / Remux] в форум Для поглощенных раздач

Причина переноса: http://underverse.me/viewtopic.php?t=98682
90ytr90
 

Яндекс.Метрика powered by Sphinx


В Н И М А Н И Е
Сайт не распространяет и не хранит электронные версии произведений, а лишь бесплатно и без коммерческой выгоды (не требуя взамен платы,
SMS и т.д.) предоставляет доступ к создаваемому пользователями каталогу ссылок на торрент-файлы, которые содержат только списки хеш-сумм.
Убедительная просьба с жалобами обращаться напрямую к пользователю, разместившему торрент файл.

Вверх