Loading...
Error

Планета обезьян: Война / War for the Planet of the Apes (Мэтт Ривз) [2017 г., фантастика, боевик, триллер, приключения, BDRemux 1080p] 2xDub + 3xAVO + Original (Eng) + Sub (Rus, Eng)

Статистика раздачи
Размер:  42,65 GB   |    Зарегистрирован:  3 месяца 24 дня   |    Скачан:  1 раз

Полного источника не было: 2 месяца 7 дней

Сидов:  0  |  0 KB/s  ]   Личеров:  0  |  0 KB/s  ]

* - сиды/пиры с внешних источников

   
 
Автор Сообщение

90ytr90 

25-Фев-2018 16:49

Планета обезьян: Война / War for the Planet of the Apes


Название: Планета обезьян: Война
Оригинальное название: War for the Planet of the Apes
Год выпуска: 2017
Жанр: Фантастика, боевик, триллер, приключения
Режиссёр: Мэтт Ривз
В главных ролях: Энди Серкис, Вуди Харрельсон, Стив Зан, Карин Коновал, Амайя Миллер, Терри Нотари, Тай Олссон, Майкл Адамуэйт, Тоби Кеббелл, Гэбриел Чаварриа

Описание:
Армию генетически модифицированных обезьян ожидает новый вызов: они вынуждены вступить в смертельную схватку с армией людей под руководством безжалостного полковника. После невообразимых потерь среди своих воинов вождь обезьян Цезарь начинает личную борьбу с темными инстинктами и собирается отомстить за весь свой вид. В конце концов он и полковник должны будут сойтись в эпической битве, которая решит, кто теперь будет править на Земле — люди или обезьяны.



Страна: США
Студия: Chernin Entertainment, River Road Entertainment, TSG Entertainment
Продолжительность: 02:20:10
Перевод: Дублированный, авторский

Кодек: MPEG-4 AVC
Качество: BDRemux 1080p
Видео: 23355 Кбит/с, 1920х1080, 23.976 кадр/с

Звук 1: Русский (DTS-HD MA Audio, 8 ch, 48 kHz, 4870 kbps) - Дубляж (Sergesha)
Звук 2: Русский (DTS, 6 ch, 768 Кбит/с) - Дубляж
Звук 3: Русский (DTS-HD MA Audio, 6 ch, 48 kHz, 3550 kbps) - Авторский (Есарев)
Звук 4: Русский (DTS-HD MA Audio, 8 ch, 48 kHz, 4813 kbps) - Авторский (Живов)
Звук 5: Русский (DTS, 6 ch, 1509 Кбит/с) - Авторский (Гаврилов)
Звук 6: Английский (DTS-HD MA Audio, 8 ch, 48 kHz, 4780 kbps) - Оригинал
Субтитры: Русские, английские



Общее
Уникальный идентификатор : 174445667602012614006415049085657324849 (0x833D03741A3EA5FF90E606AF7F0C9D31)
Полное имя : D:\РЕМУКС!!!!!\Планета обезьян. Война. BDRemux.mkv
Формат : Matroska
Версия формата : Version 4 / Version 2
Размер файла : 42,6 Гбайт
Продолжительность : 2 ч. 20 м.
Режим общего битрейта : Переменный
Общий поток : 43,6 Мбит/сек
Название фильма : Планета обезьян: Война. BDRemux.thx:SPOMOPS
Дата кодирования : UTC 2018-02-24 17:39:06
Программа кодирования : mkvmerge v8.3.0 ('Over the Horizon') 64bit
Библиотека кодирования : libebml v1.3.1 + libmatroska v1.4.2

Видео
Идентификатор : 1
Формат : AVC
Формат/Информация : Advanced Video Codec
Профиль формата : High@L4.1
Настройки формата : CABAC / 4 Ref Frames
Параметр CABAC формата : Да
Параметр RefFrames формата : 4 кадра
Идентификатор кодека : V_MPEG4/ISO/AVC
Продолжительность : 2 ч. 20 м.
Вид битрейта : Переменный
Битрейт : 23,4 Мбит/сек
Максимальный битрейт : 36,0 Мбит/сек
Ширина : 1920 пикселей
Высота : 1080 пикселей
Соотношение сторон : 16:9
Режим частоты кадров : Постоянный
Частота кадров : 23,976 (24000/1001) кадра/сек
Цветовое пространство : YUV
Субдискретизация насыщенности : 4:2:0
Битовая глубина : 8 бит
Тип развёртки : Прогрессивная
Бит/(Пиксели*Кадры) : 0.470
Размер потока : 22,9 Гбайт (54%)
Заголовок : Планета обезьян: Война
Язык : English
Default : Да
Forced : Нет

Аудио #1
Идентификатор : 2
Формат : DTS
Формат/Информация : Digital Theater Systems
Профиль формата : MA / Core
Идентификатор кодека : A_DTS
Продолжительность : 2 ч. 20 м.
Вид битрейта : Переменный / Постоянный
Битрейт : 4780 Кбит/сек / 1509 Кбит/сек
Каналы : 8 каналов / 6 каналов
Расположение каналов : Front: L C R, Side: L R, Back: L R, LFE / Front: L C R, Side: L R, LFE
Частота : 48,0 КГц
Частота кадров : 93,750 кадра/сек (512 SPF)
Битовая глубина : 24 бит
Метод сжатия : Без потерь / Lossy
Размер потока : 4,68 Гбайт (11%)
Заголовок : Русский DTS-HD MA - Дубляж
Язык : Russian
Default : Нет
Forced : Нет

Аудио #2
Идентификатор : 3
Формат : DTS
Формат/Информация : Digital Theater Systems
Идентификатор кодека : A_DTS
Продолжительность : 2 ч. 20 м.
Вид битрейта : Постоянный
Битрейт : 768 Кбит/сек
Каналы : 6 каналов
Расположение каналов : Front: L C R, Side: L R, LFE
Частота : 48,0 КГц
Частота кадров : 93,750 кадра/сек (512 SPF)
Битовая глубина : 24 бит
Метод сжатия : С потерями
Размер потока : 770 Мбайт (2%)
Заголовок : Русский DTS - Дубляж
Язык : Russian
Default : Нет
Forced : Нет

Аудио #3
Идентификатор : 4
Формат : DTS
Формат/Информация : Digital Theater Systems
Профиль формата : MA / Core
Идентификатор кодека : A_DTS
Продолжительность : 2 ч. 20 м.
Вид битрейта : Переменный / Постоянный
Битрейт : 3550 Кбит/сек / 1509 Кбит/сек
Каналы : 6 каналов
Расположение каналов : Front: L C R, Side: L R, LFE
Частота : 48,0 КГц
Частота кадров : 93,750 кадра/сек (512 SPF)
Битовая глубина : 24 бит
Метод сжатия : Без потерь / Lossy
Размер потока : 3,48 Гбайт (8%)
Заголовок : Русский DTS-HD MA - АП (Д. Есарев)
Язык : Russian
Default : Нет
Forced : Нет

Аудио #4
Идентификатор : 5
Формат : DTS
Формат/Информация : Digital Theater Systems
Профиль формата : MA / Core
Идентификатор кодека : A_DTS
Продолжительность : 2 ч. 20 м.
Вид битрейта : Переменный / Постоянный
Битрейт : 4813 Кбит/сек / 1509 Кбит/сек
Каналы : 8 каналов / 6 каналов
Расположение каналов : Front: L C R, Side: L R, Back: L R, LFE / Front: L C R, Side: L R, LFE
Частота : 48,0 КГц
Частота кадров : 93,750 кадра/сек (512 SPF)
Битовая глубина : 24 бит
Метод сжатия : Без потерь / Lossy
Размер потока : 4,71 Гбайт (11%)
Заголовок : Русский DTS-HD MA - АП (Живов)
Язык : Russian
Default : Нет
Forced : Нет

Аудио #5
Идентификатор : 6
Формат : DTS
Формат/Информация : Digital Theater Systems
Идентификатор кодека : A_DTS
Продолжительность : 2 ч. 20 м.
Вид битрейта : Постоянный
Битрейт : 1509 Кбит/сек
Каналы : 6 каналов
Расположение каналов : Front: L C R, Side: L R, LFE
Частота : 48,0 КГц
Частота кадров : 93,750 кадра/сек (512 SPF)
Битовая глубина : 24 бит
Метод сжатия : С потерями
Размер потока : 1,48 Гбайт (3%)
Заголовок : Русский DTS - АП (Гаврилов)
Язык : Russian
Default : Нет
Forced : Нет

Аудио #6
Идентификатор : 7
Формат : DTS
Формат/Информация : Digital Theater Systems
Профиль формата : MA / ES Matrix / Core
Идентификатор кодека : A_DTS
Продолжительность : 2 ч. 20 м.
Вид битрейта : Переменный / Постоянный / Постоянный
Битрейт : 4780 Кбит/сек / 1509 Кбит/сек / 1509 Кбит/сек
Каналы : 8 каналов / 7 каналов / 6 каналов
Расположение каналов : Front: L C R, Side: L R, Back: L R, LFE / Front: L C R, Side: L R, Back: C, LFE / Front: L C R, Side: L R, LFE
Частота : 48,0 КГц
Частота кадров : 93,750 кадра/сек (512 SPF)
Битовая глубина : 24 бит
Метод сжатия : Без потерь / Lossy / Lossy
Размер потока : 4,68 Гбайт (11%)
Заголовок : Английский DTS-HD MA - Оригинал
Язык : English
Default : Нет
Forced : Нет

Текст #1
Идентификатор : 8
Формат : UTF-8
Идентификатор кодека : S_TEXT/UTF8
Идентификатор кодека/Информация : UTF-8 Plain Text
Продолжительность : 2 ч. 18 м.
Битрейт : 8 бит/сек
ElementCount : 220
Размер потока : 8,96 Кбайт (0%)
Заголовок : Русские Forced
Язык : Russian
Default : Да
Forced : Нет

Текст #2
Идентификатор : 9
Формат : UTF-8
Идентификатор кодека : S_TEXT/UTF8
Идентификатор кодека/Информация : UTF-8 Plain Text
Продолжительность : 2 ч. 18 м.
Битрейт : 28 бит/сек
ElementCount : 797
Размер потока : 28,5 Кбайт (0%)
Заголовок : Русские Full
Язык : Russian
Default : Нет
Forced : Нет

Текст #3
Идентификатор : 10
Формат : UTF-8
Идентификатор кодека : S_TEXT/UTF8
Идентификатор кодека/Информация : UTF-8 Plain Text
Продолжительность : 2 ч. 8 м.
Битрейт : 16 бит/сек
ElementCount : 748
Размер потока : 15,5 Кбайт (0%)
Заголовок : Английские Full
Язык : English
Default : Нет
Forced : Нет

Меню
00:00:00.000 : en:00:00:00.000
00:05:05.889 : en:00:05:05.889
00:09:06.713 : en:00:09:06.713
00:12:14.108 : en:00:12:14.108
00:18:21.017 : en:00:18:21.017
00:25:04.503 : en:00:25:04.503
00:30:17.399 : en:00:30:17.399
00:34:13.093 : en:00:34:13.093
00:37:46.347 : en:00:37:46.347
00:42:54.447 : en:00:42:54.447
00:49:31.802 : en:00:49:31.802
00:54:14.626 : en:00:54:14.626
00:58:49.818 : en:00:58:49.818
01:05:24.129 : en:01:05:24.129
01:10:18.381 : en:01:10:18.381
01:14:53.823 : en:01:14:53.823
01:18:59.193 : en:01:18:59.193
01:25:35.672 : en:01:25:35.672
01:29:37.372 : en:01:29:37.372
01:34:22.824 : en:01:34:22.824
01:39:27.712 : en:01:39:27.712
01:43:48.222 : en:01:43:48.222
01:48:45.394 : en:01:48:45.394
01:55:20.580 : en:01:55:20.580
01:58:04.703 : en:01:58:04.703
02:02:33.930 : en:02:02:33.930
02:05:54.797 : en:02:05:54.797
02:12:51.213 : en:02:12:51.213

Этот торрент недоступен для скачивания без регистрации, однако доступен по публичной magnet-ссылке (источники с публичных трекеров). Перед использованием ссылки прочтите, пожалуйста Пользовательское соглашение, а также как можно дольше оставайтесь на раздаче! Для того, чтобы скачать сам торрент-файл (который видит больше источников), а также для того, чтобы поблагодарить релизера, вам необходимо зарегистрироваться. Если регистрироваться лень - вы можете также попробовать скачать релиз по нашим партнерским ссылкам ниже. Кроме того, зарегистрированным пользователям не показывается всплывающая реклама при скачивании.

[underverse.me].t98048.torrent
Трекер: Зарегистрирован   [ 25.02.2018 16:49 ]  

Статус: * не проверено
Поблагодарили: пока никто не поблагодарил...
Тип торрента: публичный - доступные источники с открытых трекеров: 
Размер: 42,65 GB (занимает 9,74 DVDR, для записи нужно 10 болванок DVDR/RW)
 
 
Похожие темы
Форум Тема Автор Торрент Отв. Посл. сооб.
Зарубежное кино [DVDRip, Low-Res HDRip, и т.д.] Планета обезьян / Planet of the Apes (Тим Бёртон) [2001 г., Фантастика, боевик, триллер, приключения, HDRip] Dub 90ytr90
5 | 1

0 | 1496

43

26.12.2012 17:06

Зарубежное кино [DVDRip, Low-Res HDRip, и т.д.] Планета обезьян / Planet of the Apes (Франклин Дж Шаффнер) [1968 г., фантастика, приключения, BDRip] Dub + Original 90ytr90
1 | 0

0 | 944

7

26.12.2012 17:26

Зарубежное кино [DVDRip, Low-Res HDRip, и т.д.] Планета обезьян: Революция / Dawn of the Planet of the Apes (Мэтт Ривз) [2014 г., Фантастика, Боевик, Драма, HDRip] Dub (RUS, Лицензия) + AVO (RUS, Д. Есарев) + Original (ENG) + Subs (RUS, ENG) Ведьмочка
1 | 0

0 | 1088

17

12.11.2014 04:20

Зарубежное кино [DVDRip, Low-Res HDRip, и т.д.] Планета обезьян: Революция / Dawn of the Planet of the Apes (Мэтт Ривз / Matt Reeves) [2014, Фантастика, боевик, драма, BDRip-AVC] Dub (RUS, BD CEE) + Original (ENG) + Subs (RUS, ENG, UKR) viktor.r-79
1 | 1

0 | 1140

30

13.11.2014 10:37

Зарубежное кино [DVDRip, Low-Res HDRip, и т.д.] Планета обезьян: Революция / Dawn of the Planet of the Apes (Мэтт Ривз / Matt Reeves) [2014 г., фантастика, боевик, драма, HDRip] Dub 90ytr90
114 | 3

0 | 1034

43

24.11.2014 16:54

Зарубежное кино [DVDRip, Low-Res HDRip, и т.д.] Планета обезьян: Революция / Dawn of the Planet of the Apes (Мэтт Ривз / Matt Reeves) [2014 г., фантастика, боевик, драма, HDRip] Dub 90ytr90
30 | 0

0 | 751

22

24.11.2014 17:34

T Зарубежное кино [DVDRip, Low-Res HDRip, и т.д.] Планета обезьян: Война / War for the Planet of the Apes (Мэтт Ривз) [2017 г., фантастика, боевик, триллер, драма, приключения, HDTVRip] Dub (звук с TS) makkol
9 | 3

0 | 1407

13

01.10.2017 21:22

T Зарубежное кино [DVDRip, Low-Res HDRip, и т.д.] Планета обезьян: Война / War for the Planet of the Apes (Мэтт Ривз) [2017 г., фантастика, боевик, триллер, драма, приключения, HDTVRip] MVO (@MUZOBOZ@) makkol
3 | 0

0 | 959

33

03.10.2017 21:42

T Зарубежное кино [DVDRip, Low-Res HDRip, и т.д.] Планета обезьян: Война / War for the Planet of the Apes (Мэтт Ривз) [2017 г., фантастика, боевик, триллер, драма, приключения, HDTVRip] Dub (Line) makkol
0 | 0

0 | 950

31

06.10.2017 20:37

T Зарубежное кино [DVDRip, Low-Res HDRip, и т.д.] Планета обезьян: Война / War for the Planet of the Apes (Мэтт Ривз) [2017 г., фантастика, боевик, триллер, драма, приключения, WEB-DLRip] Dub (Line) makkol
6 | 0

0 | 721

9

09.10.2017 21:22


Яндекс.Метрика powered by Sphinx


В Н И М А Н И Е
Сайт не распространяет и не хранит электронные версии произведений, а лишь бесплатно и без коммерческой выгоды (не требуя взамен платы,
SMS и т.д.) предоставляет доступ к создаваемому пользователями каталогу ссылок на торрент-файлы, которые содержат только списки хеш-сумм.
Убедительная просьба с жалобами обращаться напрямую к пользователю, разместившему торрент файл.

Вверх