Loading...
Error

Игра / The Game (Дэвид Финчер) [1997 г., триллер, драма, детектив, приключения, BDRemux 1080р] Dub + 2xMVO + 4xDVO + 3xAVO + Original + Sub

Статистика раздачи
Размер:  44,41 GB   |    Зарегистрирован:  3 месяца 22 дня   |    Скачан:  1 раз

Полного источника не было: 20 дней

Сидов:  0  |  0 KB/s  ]   Личеров:  0  |  0 KB/s  ]

* - сиды/пиры с внешних источников

   
 
Автор Сообщение

90ytr90 

28-Фев-2018 11:38

Игра / The Game


Название: Игра
Оригинальное название: The Game
Год выхода: 1997
Жанр: триллер, драма, детектив, приключения
Режиссёр: Дэвид Финчер
Актеры фильма: Майкл Дуглас, Шон Пенн, Дебора Кара Ангер, Джеймс Ребхорн, Питер Донат, Кэррол Бейкер, Анна Катарина, Армин Мюллер-Шталь, Чарльз Мартине, Юдзи Окумото

Описание: Николас Ван Ортон — само воплощение успеха. Он преуспевает, он невозмутим и спокоен, привык держать любую ситуацию под контролем. На день рождения Николас получает необычный подарок — билет для участия в «Игре».

Ему обещают, что игра вернет яркие чувства, позволит ощутить вкус и остроту жизни. Вступив в игру, Николас начинает осознавать, что это игра всерьез, игра не на жизнь, а на смерть.



Страна: США
Продолжительность: 02:08:48
Перевод 01: профессиональный (многоголосый закадровый, Позитив-Мультимедиа, Blu-ray CEE)
Перевод 02: профессиональный (дубляж, DVD-Group / ремастер Позитив-Мультимедиа)
Перевод 03: профессиональный (двухголосый закадровый, Liga HQ)
Перевод 04: профессиональный (двухголосый закадровый, Союз Видео)
Перевод 05: профессиональный (двухголосый закадровый, НТВ+)
Перевод 06: профессиональный (двухголосый закадровый, РЕН ТВ)
Перевод 07: профессиональный (многоголосый закадровый, 1 канал)
Перевод 08: авторский (одноголосый закадровый, Гаврилов, поздний перевод)
Перевод 09: авторский (одноголосый закадровый, Гаврилов, ранний перевод)
Перевод 10: авторский (одноголосый закадровый, Живов)
Оригинальная аудиодорожка: английский

Качество: BDRemux 1080р
Видео: 1920x1080p; 23,976 fps; ~ 29498 Kbps
Звук 1: Русский; DTS, 768 Kbps, 48 kHz, 6 ch, 24 bit | Позитив-Мультимедиа, Blu-ray CEE
Звук 2: Русский; AC3, 384 Kbps, 48 kHz, 6 ch | DVD-Group / ремастер Позитив-Мультимедиа
Звук 3: Русский; AC3, 384 Kbps, 48 kHz, 6 ch | Liga HQ
Звук 4: Русский; AC3, 224 Kbps, 48 kHz, 2 ch | Союз Видео * VHS Hi-Fi
Звук 5: Русский; AC3, 224 Kbps, 48 kHz, 2 ch | НТВ+
Звук 6: Русский; AC3, 192 Kbps, 48 kHz, 2 ch | РЕН ТВ
Звук 7: Русский; AC3, 192 Kbps, 48 kHz, 2 ch | 1 канал
Звук 8: Русский; DTS-HD Master Audio / 5.1 / 48 kHz / 4302 kbps / 24-bit (DTS Core: 5.1 / 48 kHz / 1509 kbps / 24-bit) | Гаврилов, поздний
Звук 9: Русский; AC3, 192 Kbps, 48 kHz, 2 ch | Гаврилов, ранний
Звук 10: Русский; DTS-HD Master Audio / 5.1 / 48 kHz / 4300 kbps / 24-bit (DTS Core: 5.1 / 48 kHz / 1509 kbps / 24-bit) | Живов
Звук 11: Английский; DTS-HD Master Audio / 5.1 / 48 kHz / 4140 kbps / 24-bit (DTS Core: 5.1 / 48 kHz / 1509 kbps / 24-bit) | Original, Theatrical Mix, Blu-ray disc Criterion Collection
Звук 12: Английский; DTS-HD Master Audio / 5.1 / 48 kHz / 4312 kbps / 24-bit (DTS Core: 5.1 / 48 kHz / 1509 kbps / 24-bit) | Original, Near Field Mix, Blu-ray disc Criterion Collection
Звук 13: Английский; AC3, 128 Kbps, 48 kHz, 2 ch | Commentary, DVD (Позитив-Мультимедиа)
Звук 14: Английский; AC3, 192 Kbps, 48 kHz, 1 ch | Commentary, Blu-ray disc Criterion Collection
Субтитры: русские, английские
General
Unique ID : 245514647956990428881846065354062460721 (0xB8B466B6EAFC499CB0B9CCDAF64C7731)
Complete name : The.Game.1997.BDRemux.1080p.Criterion Collection.mkv
Format : Matroska
Format version : Version 4 / Version 2
File size : 44.4 GiB
Duration : 2h 8mn
Overall bit rate mode : Variable
Overall bit rate : 49.3 Mbps
Movie name : The.Game.1997
Encoded date : UTC 2013-12-03 03:31:36
Writing application : mkvmerge v6.2.0 ('Promised Land') built on Apr 28 2013 12:22:01
Writing library : libebml v1.3.0 + libmatroska v1.4.0

Video
ID : 1
Format : AVC
Format/Info : Advanced Video Codec
Format profile : High@L4.1
Format settings, CABAC : Yes
Format settings, ReFrames : 4 frames
Codec ID : V_MPEG4/ISO/AVC
Duration : 2h 8mn
Bit rate mode : Variable
Bit rate : 38.1 Mbps
Maximum bit rate : 35.0 Mbps
Width : 1 920 pixels
Height : 1 080 pixels
Display aspect ratio : 16:9
Frame rate : 23.976 fps
Color space : YUV
Chroma subsampling : 4:2:0
Bit depth : 8 bits
Scan type : Progressive
Bits/(Pixel*Frame) : 0.767
Stream size : 34.3 GiB (77%)
Title : The.Game.1997.BDRemux.1080p.Criterion Collection
Language : English
Default : Yes
Forced : No

Audio #1
ID : 2
Format : DTS
Format/Info : Digital Theater Systems
Codec ID : A_DTS
Duration : 2h 8mn
Bit rate mode : Constant
Bit rate : 755 Kbps
Channel(s) : 6 channels
Channel positions : Front: L C R, Side: L R, LFE
Sampling rate : 48.0 KHz
Bit depth : 24 bits
Compression mode : Lossy
Stream size : 696 MiB (2%)
Title : MVO (Pozitiv-Mul'timedia, Blu-ray CEE) [DTS Audio, 768 Kbps, 48 kHz, 6 ch, 24-bit]
Language : Russian
Default : Yes
Forced : No

Audio #2
ID : 3
Format : AC-3
Format/Info : Audio Coding 3
Mode extension : CM (complete main)
Codec ID : A_AC3
Duration : 2h 8mn
Bit rate mode : Constant
Bit rate : 384 Kbps
Channel(s) : 6 channels
Channel positions : Front: L C R, Side: L R, LFE
Sampling rate : 48.0 KHz
Bit depth : 16 bits
Compression mode : Lossy
Stream size : 354 MiB (1%)
Title : Dub (DVD-Group, remaster Pozitiv-Mul'timedia) [AC3, 384 Kbps, 48 kHz, 6 ch]
Language : Russian
Default : No
Forced : No

Audio #3
ID : 4
Format : AC-3
Format/Info : Audio Coding 3
Mode extension : CM (complete main)
Codec ID : A_AC3
Duration : 2h 8mn
Bit rate mode : Constant
Bit rate : 384 Kbps
Channel(s) : 6 channels
Channel positions : Front: L C R, Side: L R, LFE
Sampling rate : 48.0 KHz
Bit depth : 16 bits
Compression mode : Lossy
Stream size : 354 MiB (1%)
Title : MVO (Liga HQ) [AC3, 384 Kbps, 48 kHz, 6 ch]
Language : Russian
Default : No
Forced : No

Audio #4
ID : 5
Format : AC-3
Format/Info : Audio Coding 3
Mode extension : CM (complete main)
Codec ID : A_AC3
Duration : 2h 8mn
Bit rate mode : Constant
Bit rate : 224 Kbps
Channel(s) : 2 channels
Channel positions : Front: L R
Sampling rate : 48.0 KHz
Bit depth : 16 bits
Compression mode : Lossy
Stream size : 206 MiB (0%)
Title : DVO (Soyuz Video) [AC3, 224 Kbps, 48 kHz, 2 ch]
Language : Russian
Default : No
Forced : No

Audio #5
ID : 6
Format : AC-3
Format/Info : Audio Coding 3
Mode extension : CM (complete main)
Codec ID : A_AC3
Duration : 2h 8mn
Bit rate mode : Constant
Bit rate : 224 Kbps
Channel(s) : 2 channels
Channel positions : Front: L R
Sampling rate : 48.0 KHz
Bit depth : 16 bits
Compression mode : Lossy
Stream size : 206 MiB (0%)
Title : DVO (NTV+) [AC3, 224 Kbps, 48 kHz, 2 ch]
Language : Russian
Default : No
Forced : No

Audio #6
ID : 7
Format : AC-3
Format/Info : Audio Coding 3
Mode extension : CM (complete main)
Codec ID : A_AC3
Duration : 2h 8mn
Bit rate mode : Constant
Bit rate : 192 Kbps
Channel(s) : 2 channels
Channel positions : Front: L R
Sampling rate : 48.0 KHz
Bit depth : 16 bits
Compression mode : Lossy
Stream size : 177 MiB (0%)
Title : DVO (Ren TV) [AC3, 192 Kbps, 48 kHz, 2 ch]
Language : Russian
Default : No
Forced : No

Audio #7
ID : 8
Format : AC-3
Format/Info : Audio Coding 3
Mode extension : CM (complete main)
Codec ID : A_AC3
Duration : 2h 8mn
Bit rate mode : Constant
Bit rate : 192 Kbps
Channel(s) : 2 channels
Channel positions : Front: L R
Sampling rate : 48.0 KHz
Bit depth : 16 bits
Compression mode : Lossy
Stream size : 177 MiB (0%)
Title : MVO (1 kanal) [AC3, 192 Kbps, 48 kHz, 2 ch]
Language : Russian
Default : No
Forced : No

Audio #8
ID : 9
Format : DTS
Format/Info : Digital Theater Systems
Format profile : MA / Core
Codec ID : A_DTS
Duration : 2h 8mn
Bit rate mode : Variable
Bit rate : 2 113 Kbps / 1 510 Kbps
Channel(s) : 6 channels
Channel positions : Front: L C R, Side: L R, LFE
Sampling rate : 48.0 KHz
Bit depth : 24 bits
Compression mode : Lossless / Lossy
Title : AVO (Gavrilov, pozdnii) [DTS-HD Master Audio, 48 kHz, 6 ch, 24-bit]
Language : Russian
Default : No
Forced : No

Audio #9
ID : 10
Format : AC-3
Format/Info : Audio Coding 3
Mode extension : CM (complete main)
Codec ID : A_AC3
Duration : 2h 8mn
Bit rate mode : Constant
Bit rate : 192 Kbps
Channel(s) : 2 channels
Channel positions : Front: L R
Sampling rate : 48.0 KHz
Bit depth : 16 bits
Compression mode : Lossy
Stream size : 177 MiB (0%)
Title : AVO (Gavrilov, rannii) [AC3, 192 Kbps, 48 kHz, 2 ch]
Language : Russian
Default : No
Forced : No

Audio #10
ID : 11
Format : DTS
Format/Info : Digital Theater Systems
Format profile : MA / Core
Codec ID : A_DTS
Duration : 2h 8mn
Bit rate mode : Variable
Bit rate : 2 119 Kbps / 1 510 Kbps
Channel(s) : 6 channels
Channel positions : Front: L C R, Side: L R, LFE
Sampling rate : 48.0 KHz
Bit depth : 24 bits
Compression mode : Lossless / Lossy
Title : AVO (Jivov) [DTS-HD Master Audio, 48 kHz, 6 ch, 24-bit]
Language : Russian
Default : No
Forced : No

Audio #11
ID : 12
Format : DTS
Format/Info : Digital Theater Systems
Format profile : MA / Core
Codec ID : A_DTS
Duration : 2h 8mn
Bit rate mode : Variable
Bit rate : 1 561 Kbps / 1 510 Kbps
Channel(s) : 6 channels
Channel positions : Front: L C R, Side: L R, LFE
Sampling rate : 48.0 KHz
Bit depth : 24 bits
Compression mode : Lossless / Lossy
Title : Original (Theatrical Mix) [DTS-HD Master Audio, 48 kHz, 6 ch, 24-bit]
Language : English
Default : No
Forced : No

Audio #12
ID : 13
Format : DTS
Format/Info : Digital Theater Systems
Format profile : MA / Core
Codec ID : A_DTS
Duration : 2h 8mn
Bit rate mode : Variable
Bit rate : 1 561 Kbps / 1 510 Kbps
Channel(s) : 6 channels
Channel positions : Front: L C R, Side: L R, LFE
Sampling rate : 48.0 KHz
Bit depth : 24 bits
Compression mode : Lossless / Lossy
Title : Original (Near Field Mix, originally designed Criterion) [DTS-HD Master Audio, 48 kHz, 6 ch, 24-bit]
Language : English
Default : No
Forced : No

Audio #13
ID : 14
Format : AC-3
Format/Info : Audio Coding 3
Mode extension : CM (complete main)
Codec ID : A_AC3
Duration : 2h 8mn
Bit rate mode : Constant
Bit rate : 128 Kbps
Channel(s) : 2 channels
Channel positions : Front: L R
Sampling rate : 48.0 KHz
Bit depth : 16 bits
Compression mode : Lossy
Stream size : 118 MiB (0%)
Title : Commentary (DVD Pozitiv) [AC3, 128 Kbps, 48 kHz, 2 ch]
Language : English
Default : No
Forced : No

Audio #14
ID : 15
Format : AC-3
Format/Info : Audio Coding 3
Mode extension : CM (complete main)
Codec ID : A_AC3
Duration : 2h 8mn
Bit rate mode : Constant
Bit rate : 192 Kbps
Channel(s) : 1 channel
Channel positions : Front: C
Sampling rate : 48.0 KHz
Bit depth : 16 bits
Compression mode : Lossy
Stream size : 177 MiB (0%)
Title : Commentary (Blu-ray disc Criterion Collection) [AC3, 192 Kbps, 48 kHz, 1 ch]
Language : English
Default : No
Forced : No

Text #1
ID : 16
Format : UTF-8
Codec ID : S_TEXT/UTF8
Codec ID/Info : UTF-8 Plain Text
Title : v.1 (DVD Pozitiv)
Language : Russian
Default : No
Forced : No

Text #2
ID : 17
Format : UTF-8
Codec ID : S_TEXT/UTF8
Codec ID/Info : UTF-8 Plain Text
Title : v.2
Language : Russian
Default : No
Forced : No

Text #3
ID : 18
Format : UTF-8
Codec ID : S_TEXT/UTF8
Codec ID/Info : UTF-8 Plain Text
Title : Full
Language : English
Default : No
Forced : No

Text #4
ID : 19
Format : UTF-8
Codec ID : S_TEXT/UTF8
Codec ID/Info : UTF-8 Plain Text
Title : SDH (Blu-ray disc Criterion Collection)
Language : English
Default : No
Forced : No

Text #5
ID : 20
Format : UTF-8
Codec ID : S_TEXT/UTF8
Codec ID/Info : UTF-8 Plain Text
Title : SDH (Blu-ray disc Criterion Collection) by CtrlHD
Language : English
Default : No
Forced : No

Text #6
ID : 21
Format : UTF-8
Codec ID : S_TEXT/UTF8
Codec ID/Info : UTF-8 Plain Text
Title : Commentary (DVD Pozitiv)
Language : English
Default : No
Forced : No

Text #7
ID : 22
Format : VobSub
Muxing mode : zlib
Codec ID : S_VOBSUB
Codec ID/Info : The same subtitle format used on DVDs
Title : VobSub Full (DVD Pozitiv)
Language : Russian
Default : No
Forced : No

Text #8
ID : 23
Format : VobSub
Muxing mode : zlib
Codec ID : S_VOBSUB
Codec ID/Info : The same subtitle format used on DVDs
Title : VobSub SDH (Blu-ray disc Criterion Collection)
Language : English
Default : No
Forced : No

Text #9
ID : 24
Format : VobSub
Muxing mode : zlib
Codec ID : S_VOBSUB
Codec ID/Info : The same subtitle format used on DVDs
Title : VobSub SDH (DVD Pozitiv)
Language : English
Default : No
Forced : No

Text #10
ID : 25
Format : VobSub
Muxing mode : zlib
Codec ID : S_VOBSUB
Codec ID/Info : The same subtitle format used on DVDs
Title : VobSub Commentary (DVD Pozitiv)
Language : English
Default : No
Forced : No

Menu
00:00:00.000 : en:Opening titles
00:01:06.275 : en:Birthday party
00:02:52.422 : en:“Happy birthday, sir”
00:05:51.851 : en:Profound life experience
00:09:27.734 : en:Forty-eight
00:13:41.738 : en:Consumer Recreation Services
00:17:54.365 : en:“Confused . . . risky . . . bloody . . . whoops”
00:20:52.543 : en:John 9:25
00:24:49.405 : en:“This is your Game, and welcome to it”
00:30:47.846 : en:Helping hand
00:34:00.538 : en:“Don’t let her get away”
00:43:13.508 : en:Czar Nicholas
00:51:09.984 : en:Guy in the gray flannel suit
00:53:55.816 : en:Hotel Nikko
00:59:11.339 : en:Toyed with by depraved children
01:04:56.392 : en:Nicholas Van Cocksucker
01:08:06.541 : en:Human pinata
01:12:31.556 : en:California Regal Sedans
01:15:57.803 : en:Motive
01:18:55.397 : en:Cable Repair Specialists
01:26:49.454 : en:Blue 2/9690D
01:33:56.422 : en:Entombed
01:37:29.927 : en:“Can I have your attention, please?”
01:42:23.095 : en:Trust Taggarene
01:45:14.016 : en:“I love your work”
01:48:25.791 : en:Pulling back the curtain
01:52:38.293 : en:“This is the Game”
01:59:28.119 : en:Cordially invited
02:03:44.250 : en:End credits

Этот торрент недоступен для скачивания без регистрации, однако доступен по публичной magnet-ссылке (источники с публичных трекеров). Перед использованием ссылки прочтите, пожалуйста Пользовательское соглашение, а также как можно дольше оставайтесь на раздаче! Для того, чтобы скачать сам торрент-файл (который видит больше источников), а также для того, чтобы поблагодарить релизера, вам необходимо зарегистрироваться. Если регистрироваться лень - вы можете также попробовать скачать релиз по нашим партнерским ссылкам ниже. Кроме того, зарегистрированным пользователям не показывается всплывающая реклама при скачивании.

[underverse.me].t98238.torrent
Трекер: Зарегистрирован   [ 28.02.2018 11:38 ]  

Статус: проверено (by Паукан at 03.03.2018 16:13)
Поблагодарили: пока никто не поблагодарил...
Тип торрента: публичный - доступные источники с открытых трекеров: 
Размер: 44,41 GB (занимает 10,14 DVDR, для записи нужно 11 болванок DVDR/RW)
 
 
Похожие темы
Форум Тема Автор Торрент Отв. Посл. сооб.
Зарубежное кино [DVDRip, Low-Res HDRip, и т.д.] Игра / The Game (Дэвид Финчер / David Fincher) [1997 г., триллер, драма, детектив, приключения, BDRip] Dub 90ytr90
14 | 1

0 | 2736

41

17.10.2013 15:21

Зарубежное кино [DVDRip, Low-Res HDRip, и т.д.] Игра / The Game (Дэвид Финчер / David Fincher) [1997 г., фантастика, боевик, приключения, BDRip-AVC] Dub + Original (Eng) + Sub 90ytr90
11 | 0

0 | 205

5

28.02.2018 12:02

Зарубежное кино [HDDVDRip / BDRip / WEB-DL / HDTV 1080/720р] Игра / The Game (Дэвид Финчер) [1997 г., триллер, драма, детектив, приключения, BDRip] MVO + Original + Dub ultarasbarcelona
2 | 0

2 | 874

19

24.04.2015 11:49

Зарубежное кино [HDDVDRip / BDRip / WEB-DL / HDTV 1080/720р] Игра / The Game (Дэвид Финчер / David Fincher) [1997 г., триллер, драма, детектив, приключения, BDRip 1080p] Dub + 2xMVO + 4xDVO + 3xAVO + Original + Sub 90ytr90
3 | 0

0 | 112

1

28.02.2018 11:46

Зарубежное кино [HDDVDRip / BDRip / WEB-DL / HDTV 1080/720р] Игра / The Game (Дэвид Финчер / David Fincher) [1997 г., триллер, драма, детектив, приключения, BDRip 720p] 2xDub + MVO + 5xDVO + 4xAVO + Ukr + Original + Sub 90ytr90
7 | 1

0 | 108

1

28.02.2018 11:51

Зарубежное кино [HDDVDRip / BDRip / WEB-DL / HDTV 1080/720р] Игра / The Game (Дэвид Финчер) [1997 г., триллер, детектив, приключения, BDRip 1080p] MVO + Original (Eng) + Sub 90ytr90
63 | 5

0 | 170

4

28.02.2018 11:54

Зарубежное кино [HDDVDRip / BDRip / WEB-DL / HDTV 1080/720р] Игра / The Game (Дэвид Финчер / David Fincher) [1997 г., фантастика, боевик, приключения, BDRip 720p] Dub + DVO + AVO + Original + Sub 90ytr90
13 | 1

0 | 165

5

28.02.2018 11:58


Яндекс.Метрика powered by Sphinx


В Н И М А Н И Е
Сайт не распространяет и не хранит электронные версии произведений, а лишь бесплатно и без коммерческой выгоды (не требуя взамен платы,
SMS и т.д.) предоставляет доступ к создаваемому пользователями каталогу ссылок на торрент-файлы, которые содержат только списки хеш-сумм.
Убедительная просьба с жалобами обращаться напрямую к пользователю, разместившему торрент файл.

Вверх