Loading...
Error

Леди Бёрд / Lady Bird (Грета Гервиг / Greta Gerwig) [2017 г., драма, комедия, BDRemux 1080p] MVO (HDrezka Studio) + Original (Eng) + Sub (Rus, Eng)

Статистика раздачи
Размер:  14,7 GB   |    Зарегистрирован:  3 месяца 19 дней   |    Скачан:  5 раз

Полного источника не было: 1 день 17 часов

Сидов:  0  |  0 KB/s  ]   Личеров:  0  |  0 KB/s  ]

* - сиды/пиры с внешних источников

   
 
Автор Сообщение

90ytr90 

01-Мар-2018 02:53

Леди Бёрд / Lady Bird
«Time to fly»

Страна: США
Год выпуска: 2017
Жанр: драма, комедия
Продолжительность: 01:34:04
Озвучивание:
  • любительское (многоголосое закадровое) [HDrezka Studio]
  • оригинальная звуковая дорожка [английский]

Режиссёр: Грета Гервиг / Greta Gerwig

В ролях: Сирша Ронан, Тимоти Шаламе, Одейя Раш, Лори Меткаф, Лукас Хеджес, Кэтрин Ньютон, Бини Фелдштейн, Джейк Макдорман, Трэйси Леттс, Даниэль МакДональд


Сюжет фильма:
Кристина МакФерсон учится в консервативной католической школе в Сакраменто. Она ищет себя, своё место в мире и пытается быть не похожей на других. Её волосы выкрашены в странный красно-розовый цвет, а имя Леди Бёрд она дала себе сама и именно так просит её называть. И главная её мечта — вырваться из этого провинциального захолустья и поехать учиться в Нью-Йорк.

  • Дата мировой премьеры: 1 сентября 2017
  • Дата российской премьеры: 15 марта 2018, «UPI»
             
Качество видео: BDRemux 1080p
Формат: MKV
Видео: AVC, 1920x1080 (16:9), 19 Mbps, 23.976 (24000/1001) fps, 0.381 bit/pixel
Аудио #1: AC3, 192 kbps, 2 ch, 48 kHz, MVO [HDrezka Studio]
Аудио #2: DTS, 3228 kbps/1509 kbps, 6 ch, 48 kHz, Original [English]
Субтитры: Russian (full), English (full, SDH)
Навигация по главам: есть (16)

Сборка: Silverok
General
Unique ID : 12824393380321341675992434780744067266 (0x9A5E3692273335BA223145C31CA28C2)
Complete name : D:uTorrentLedi.Bjerd.2017.BDRemux.1080p.MediaClub.mkv
Format : Matroska
Format version : Version 4 / Version 2
File size : 14.7 GiB
Duration : 1 h 34 min
Overall bit rate mode : Variable
Overall bit rate : 22.4 Mb/s
Encoded date : UTC 2018-02-28 21:11:17
Writing application : mkvmerge v19.0.0 ('Brave Captain') 64-bit
Writing library : libebml v1.3.5 + libmatroska v1.4.8
Cover : Yes
Attachments : cover.jpg

Video
ID : 1
Format : AVC
Format/Info : Advanced Video Codec
Format profile : High@L4.1
Format settings : CABAC / 4 Ref Frames
Format settings, CABAC : Yes
Format settings, RefFrames : 4 frames
Codec ID : V_MPEG4/ISO/AVC
Duration : 1 h 34 min
Bit rate mode : Variable
Bit rate : 19.0 Mb/s
Maximum bit rate : 37.0 Mb/s
Width : 1 920 pixels
Height : 1 080 pixels
Display aspect ratio : 16:9
Frame rate mode : Constant
Frame rate : 23.976 (24000/1001) FPS
Color space : YUV
Chroma subsampling : 4:2:0
Bit depth : 8 bits
Scan type : Progressive
Bits/(Pixel*Frame) : 0.381
Stream size : 12.5 GiB (85%)
Title : BDRemux by Silverok
Default : Yes
Forced : No

Audio #1
ID : 2
Format : AC-3
Format/Info : Audio Coding 3
Codec ID : A_AC3
Duration : 1 h 33 min
Bit rate mode : Constant
Bit rate : 192 kb/s
Channel(s) : 2 channels
Channel positions : Front: L R
Sampling rate : 48.0 kHz
Frame rate : 31.250 FPS (1536 SPF)
Bit depth : 16 bits
Compression mode : Lossy
Stream size : 129 MiB (1%)
Title : Любительский многоголосый (HDrezka Studio)
Language : Russian
Service kind : Complete Main
Default : Yes
Forced : No

Audio #2
ID : 3
Format : DTS
Format/Info : Digital Theater Systems
Format profile : MA / Core
Codec ID : A_DTS
Duration : 1 h 33 min
Bit rate mode : Variable / Constant
Bit rate : 3 228 kb/s / 1 509 kb/s
Channel(s) : 6 channels
Channel positions : Front: L C R, Side: L R, LFE
Sampling rate : 48.0 kHz
Frame rate : 93.750 FPS (512 SPF)
Bit depth : 24 bits
Compression mode : Lossless / Lossy
Stream size : 2.11 GiB (14%)
Language : English
Default : No
Forced : No

Text #1
ID : 4
Format : UTF-8
Codec ID : S_TEXT/UTF8
Codec ID/Info : UTF-8 Plain Text
Duration : 1 h 27 min
Bit rate : 115 b/s
Count of elements : 1394
Stream size : 74.0 KiB (0%)
Title : Full
Language : Russian
Default : Yes
Forced : No

Text #2
ID : 5
Format : UTF-8
Codec ID : S_TEXT/UTF8
Codec ID/Info : UTF-8 Plain Text
Duration : 1 h 27 min
Bit rate : 78 b/s
Count of elements : 1476
Stream size : 50.5 KiB (0%)
Title : Full
Language : English
Default : No
Forced : No

Text #3
ID : 6
Format : UTF-8
Codec ID : S_TEXT/UTF8
Codec ID/Info : UTF-8 Plain Text
Duration : 1 h 33 min
Bit rate : 80 b/s
Count of elements : 1612
Stream size : 55.2 KiB (0%)
Title : SDH
Language : English
Default : No
Forced : No

Menu
00:00:00.000 : en:Chapter 1
00:05:59.651 : en:Chapter 2
00:11:17.427 : en:Chapter 3
00:18:20.391 : en:Chapter 4
00:22:15.960 : en:Chapter 5
00:27:46.290 : en:Chapter 6
00:33:56.284 : en:Chapter 7
00:40:33.639 : en:Chapter 8
00:45:51.040 : en:Chapter 9
00:51:02.017 : en:Chapter 10
00:57:29.071 : en:Chapter 11
01:03:11.371 : en:Chapter 12
01:08:32.358 : en:Chapter 13
01:14:06.066 : en:Chapter 14
01:21:17.039 : en:Chapter 15
01:25:26.455 : en:Chapter 16

Оскар, 2018 год
Номинации (5):
Лучший фильм
Лучшая женская роль (Сирша Ронан)
Лучшая женская роль второго плана (Лори Меткаф)
Лучший режиссер (Грета Гервиг)
Лучший сценарий

Золотой глобус, 2018 год
Победитель (2):
Лучший фильм (комедия или мюзикл)
Лучшая женская роль (комедия или мюзикл) ( Сирша Ронан )
Номинации (2):
Лучшая женская роль второго плана (Лори Меткаф)
Лучший сценарий

Британская академия, 2018 год
Номинации (3):
Лучшая женская роль (Сирша Ронан)
Лучшая женская роль второго плана (Лори Меткаф)
Лучший оригинальный сценарий

Премия Гильдии актеров, 2018 год
Номинации (3):
Лучшая женская роль (Сирша Ронан)
Лучшая женская роль второго плана (Лори Меткаф)
Лучший актерский состав


pic pic pic
Для увеличения картинки щелкните мышкой по превью



pic pic pic pic pic pic pic pic

Этот торрент недоступен для скачивания без регистрации, однако доступен по публичной magnet-ссылке (источники с публичных трекеров). Перед использованием ссылки прочтите, пожалуйста Пользовательское соглашение, а также как можно дольше оставайтесь на раздаче! Для того, чтобы скачать сам торрент-файл (который видит больше источников), а также для того, чтобы поблагодарить релизера, вам необходимо зарегистрироваться. Если регистрироваться лень - вы можете также попробовать скачать релиз по нашим партнерским ссылкам ниже. Кроме того, зарегистрированным пользователям не показывается всплывающая реклама при скачивании.

[underverse.me].t98373.torrent
Трекер: Зарегистрирован   [ 01.03.2018 02:53 ]  

Статус: проверено (by 90ytr90 at 02.03.2018 17:01)
Поблагодарили: пока никто не поблагодарил...
Тип торрента: публичный - доступные источники с открытых трекеров: 
Размер: 14,7 GB (занимает 3,36 DVDR, для записи нужно 4 болванки DVDR/RW)
 
 
Похожие темы
Форум Тема Автор Торрент Отв. Посл. сооб.
T Зарубежное кино [DVDRip, Low-Res HDRip, и т.д.] Леди Бёрд / Lady Bird (Грета Гервиг / Greta Gerwig) [2017 г., драма, комедия, BDRip] Dub (iTunes) 90ytr90
57 | 3

0 | 361

9

10.05.2018 02:58

T Зарубежное кино [DVDRip, Low-Res HDRip, и т.д.] Леди Бёрд / Lady Bird (Грета Гервиг) [2017 г., драма, комедия, WEB-DLRip] MVO (@MUZOBOZ@) makkol
6 | 2

0 | 340

16

15.02.2018 20:48

Зарубежное кино [DVDRip, Low-Res HDRip, и т.д.] Леди Бёрд / Lady Bird (Грета Гервиг / Greta Gerwig) [2017 г., драма, комедия, WEB-DLRip] MVO (HDrezka Studio) + Original (Eng) + Sub (Rus, Eng) 90ytr90
5 | 4

0 | 493

11

21.02.2018 09:49

Зарубежное кино [DVDRip, Low-Res HDRip, и т.д.] Леди Бёрд / Lady Bird (Грета Гервиг / Greta Gerwig) [2017 г., драма, комедия, BDRip] MVO (HDrezka Studio) 90ytr90
47 | 2

0 | 470

11

28.02.2018 13:24

Зарубежное кино [DVDRip, Low-Res HDRip, и т.д.] Леди Бёрд / Lady Bird (Грета Гервиг / Greta Gerwig) [2017 г., драма, комедия, BDRip] MVO (HDrezka Studio) 90ytr90
9 | 2

0 | 256

4

28.02.2018 16:16

T Зарубежное кино [DVDRip, Low-Res HDRip, и т.д.] Леди Бёрд / Lady Bird (Грета Гервиг) [2017 г., драма, комедия, HDRip] Dub (Line) makkol
5 | 3

0 | 379

10

01.05.2018 21:20

T Зарубежное кино [DVD / HDDVD / BD / Remux] Леди Бёрд / Lady Bird (Грета Гервиг / Greta Gerwig) [2017 г., драма, комедия, BDRemux 1080p] Dub (iTunes) + Original (Eng) + Sub (Rus, Eng) 90ytr90
0 | 3

0 | 420

6

10.05.2018 03:05

T Зарубежное кино [HDDVDRip / BDRip / WEB-DL / HDTV 1080/720р] Леди Бёрд / Lady Bird (Грета Гервиг / Greta Gerwig) [2017 г., драма, комедия, BDRip 1080p] Dub (iTunes) + Original (Eng) + Sub (Rus, Eng) 90ytr90
37 | 2

0 | 438

7

10.05.2018 03:00

T Зарубежное кино [HDDVDRip / BDRip / WEB-DL / HDTV 1080/720р] Леди Бёрд / Lady Bird (Грета Гервиг) [2017 г., драма, комедия, WEB-DL 720p] MVO (@MUZOBOZ@) makkol
5 | 2

0 | 542

13

15.02.2018 20:55

# Зарубежное кино [HDDVDRip / BDRip / WEB-DL / HDTV 1080/720р] Леди Бёрд / Lady Bird (Грета Гервиг / Greta Gerwig) [2017 г., драма, комедия, WEB-DLRip 1080p] MVO (HDrezka Studio) + Original (Eng) + Sub (Rus, Eng) 90ytr90
14 | 3

0 | 697

13

21.02.2018 03:07


Яндекс.Метрика powered by Sphinx


В Н И М А Н И Е
Сайт не распространяет и не хранит электронные версии произведений, а лишь бесплатно и без коммерческой выгоды (не требуя взамен платы,
SMS и т.д.) предоставляет доступ к создаваемому пользователями каталогу ссылок на торрент-файлы, которые содержат только списки хеш-сумм.
Убедительная просьба с жалобами обращаться напрямую к пользователю, разместившему торрент файл.

Вверх