Loading...
Error

мама! / mother! (Даррен Аронофски / Darren Aronofsky) [2017 г., ужасы, триллер, драма, авторское кино, BDRemux 1080p] Dub + Original (Eng) + Sub (Rus, Eng)

Статистика раздачи
Размер:  28,48 GB   |    Зарегистрирован:  3 месяца 23 дня   |    Скачан:  1 раз

Полного источника не было: 3 месяца 14 дней

Сидов:  0  |  0 KB/s  ]   Личеров:  0  |  0 KB/s  ]

* - сиды/пиры с внешних источников

   
 
Автор Сообщение

90ytr90 

01-Мар-2018 08:05

мама! / mother!
«seeing is believing»

Страна: США
Год выпуска: 2017
Жанр: ужасы, триллер, драма, авторское кино
Продолжительность: 02:01:44
Озвучивание:
  • профессиональное (полное дублирование) [лицензия]
  • оригинальная звуковая дорожка [английский]

Режиссёр: Даррен Аронофски / Darren Aronofsky

В ролях: Дженнифер Лоуренс, Хавьер Бардем, Эд Харрис, Мишель Пфайффер, Брин Глисон, Донал Глисон, Йован Адепо, Патриция Саммерсетт, Эрик Дэвис


Сюжет фильма:
Отношения молодой пары оказываются под угрозой, когда, нарушая безмятежное существование супругов, в их дом заявляются незваные гости...

  • Дата мировой премьеры: 5 сентября 2017
  • Дата российской премьеры: 14 сентября 2017, «Централ Партнершип»
             
Качество видео: BDRemux 1080p
Формат: MKV
Видео: AVC, 1920x1080 (16:9), 28.6 Mbps, 23.976 (24000/1001) fps, 0.575 bit/pixel
Аудио #1: AC3, 448 kbps, 6 ch, 48 kHz, Dub [лицензия]
Аудио #2: TrueHD, 7446 kbps, 8 ch, 48 kHz, Original [English]
Аудио #3: AC3, 640 kbps, 6 ch, 48 kHz, Original [English]
Субтитры: Russian (full), English (full)
Навигация по главам: есть (20)

Rip by СелезеньS
General
Unique ID : 198026381471251112774491346546161994319 (0x94FA7E68B88906721CFB3EE30AF1CA4F)
Complete name : C:\Video111Mother.2017.Lic.BDREMUX.1080p.ExKinoRay.mkv
Format : Matroska
Format version : Version 4 / Version 2
File size : 28.5 GiB
Duration : 2 h 1 min
Overall bit rate mode : Variable
Overall bit rate : 33.6 Mb/s
Movie name : Mother! 2017 from ExKinoRay
Encoded date : UTC 2018-02-09 13:47:03
Writing application : mkvmerge v20.0.0 ('I Am The Sun') 64-bit
Writing library : libebml v1.3.5 + libmatroska v1.4.8

Video
ID : 1
Format : AVC
Format/Info : Advanced Video Codec
Format profile : High@L4.1
Format settings : CABAC / 4 Ref Frames
Format settings, CABAC : Yes
Format settings, ReFrames : 4 frames
Codec ID : V_MPEG4/ISO/AVC
Duration : 2 h 1 min
Bit rate mode : Variable
Bit rate : 28.6 Mb/s
Maximum bit rate : 31.0 Mb/s
Width : 1 920 pixels
Height : 1 080 pixels
Display aspect ratio : 16:9
Frame rate mode : Constant
Frame rate : 23.976 (24000/1001) FPS
Color space : YUV
Chroma subsampling : 4:2:0
Bit depth : 8 bits
Scan type : Progressive
Bits/(Pixel*Frame) : 0.575
Stream size : 24.2 GiB (85%)
Language : English
Default : Yes
Forced : No

Audio #1
ID : 2
Format : AC-3
Format/Info : Audio Coding 3
Codec ID : A_AC3
Duration : 2 h 1 min
Bit rate mode : Constant
Bit rate : 448 kb/s
Channel(s) : 6 channels
Channel positions : Front: L C R, Side: L R, LFE
Sampling rate : 48.0 kHz
Frame rate : 31.250 FPS (1536 SPF)
Bit depth : 16 bits
Compression mode : Lossy
Stream size : 388 MiB (1%)
Title : Dub [License]
Language : Russian
Service kind : Complete Main
Default : Yes
Forced : No

Audio #2
ID : 3
Format : TrueHD
Format profile : TrueHD+Atmos / TrueHD
Codec ID : A_TRUEHD
Duration : 2 h 1 min
Bit rate mode : Variable
Bit rate : 3 918 kb/s
Maximum bit rate : 7 446 kb/s
Channel(s) : Object Based / 8 channels
Channel positions : Object Based / Front: L C R, Side: L R, Back: L R, LFE
Sampling rate : / 48.0 kHz
Frame rate : 1 200.000 FPS (40 SPF)
Compression mode : Lossless
Stream size : 3.32 GiB (12%)
Title : Original
Language : English
Default : No
Forced : No

Audio #3
ID : 4
Format : AC-3
Format/Info : Audio Coding 3
Codec ID : A_AC3
Duration : 2 h 1 min
Bit rate mode : Constant
Bit rate : 640 kb/s
Channel(s) : 6 channels
Channel positions : Front: L C R, Side: L R, LFE
Sampling rate : 48.0 kHz
Frame rate : 31.250 FPS (1536 SPF)
Bit depth : 16 bits
Compression mode : Lossy
Stream size : 555 MiB (2%)
Language : English
Service kind : Complete Main
Default : No
Forced : No

Text #1
ID : 5
Format : UTF-8
Codec ID : S_TEXT/UTF8
Codec ID/Info : UTF-8 Plain Text
Duration : 2 h 0 min
Bit rate : 56 b/s
Count of elements : 1164
Stream size : 49.3 KiB (0%)
Title : Full
Language : Russian
Default : No
Forced : No

Text #2
ID : 6
Format : UTF-8
Codec ID : S_TEXT/UTF8
Codec ID/Info : UTF-8 Plain Text
Duration : 1 h 54 min
Bit rate : 38 b/s
Count of elements : 1282
Stream size : 32.4 KiB (0%)
Title : Full
Language : English
Default : No
Forced : No

Menu
00:00:00.000 : en:00:00:00.000
00:06:22.507 : en:00:06:22.507
00:10:21.079 : en:00:10:21.079
00:15:59.500 : en:00:15:59.500
00:21:37.922 : en:00:21:37.922
00:24:59.415 : en:00:24:59.415
00:31:31.056 : en:00:31:31.056
00:38:29.224 : en:00:38:29.224
00:44:57.028 : en:00:44:57.028
00:49:35.764 : en:00:49:35.764
00:53:43.303 : en:00:53:43.303
01:02:19.694 : en:01:02:19.694
01:08:24.809 : en:01:08:24.809
01:16:52.191 : en:01:16:52.191
01:20:30.909 : en:01:20:30.909
01:28:26.885 : en:01:28:26.885
01:38:08.716 : en:01:38:08.716
01:45:52.638 : en:01:45:52.638
01:49:48.624 : en:01:49:48.624
01:56:21.183 : en:01:56:21.183

Венецианский кинофестиваль, 2017 год
Номинации (1):
Золотой лев


pic pic pic
Для увеличения картинки щелкните мышкой по превью



pic pic pic pic pic

Этот торрент недоступен для скачивания без регистрации, однако доступен по публичной magnet-ссылке (источники с публичных трекеров). Перед использованием ссылки прочтите, пожалуйста Пользовательское соглашение, а также как можно дольше оставайтесь на раздаче! Для того, чтобы скачать сам торрент-файл (который видит больше источников), а также для того, чтобы поблагодарить релизера, вам необходимо зарегистрироваться. Если регистрироваться лень - вы можете также попробовать скачать релиз по нашим партнерским ссылкам ниже. Кроме того, зарегистрированным пользователям не показывается всплывающая реклама при скачивании.

[underverse.me].t98412.torrent
Трекер: Зарегистрирован   [ 01.03.2018 08:05 ]  

Статус: проверено (by Паукан at 01.03.2018 10:52)
Поблагодарили: пока никто не поблагодарил...
Тип торрента: публичный - доступные источники с открытых трекеров: 
Размер: 28,48 GB (занимает 6,51 DVDR, для записи нужно 7 болванок DVDR/RW)
 
 
Похожие темы
Форум Тема Автор Торрент Отв. Посл. сооб.
Зарубежное кино [DVDRip, Low-Res HDRip, и т.д.] мама! / mother! (Даррен Аронофски / Darren Aronofsky) [2017 г., ужасы, триллер, драма, авторское кино, BDRip] Dub 90ytr90
7 | 4

0 | 714

21

09.02.2018 17:18

Зарубежное кино [DVDRip, Low-Res HDRip, и т.д.] мама! / mother! (Даррен Аронофски / Darren Aronofsky) [2017 г., ужасы, триллер, драма, авторское кино, BDRip] Dub 90ytr90
49 | 5

0 | 537

9

11.02.2018 08:29

Зарубежное кино [DVDRip, Low-Res HDRip, и т.д.] мама! / mother! (Даррен Аронофски / Darren Aronofsky) [2017 г., ужасы, триллер, драма, авторское кино, HDRip] Dub 90ytr90
5 | 3

0 | 252

3

01.03.2018 08:10

Зарубежное кино [DVD / HDDVD / BD / Remux] мама! / mother! (Даррен Аронофски / Darren Aronofsky) [2017 г., ужасы, триллер, драма, авторское кино, BDRemux 1080p] 2xDub (Rus) + Dub (Ukr) + 3xAVO (Сербин, Володарский, Карповский) + Original... 90ytr90
6 | 0

0 | 275

0

11.03.2018 06:45

T Зарубежное кино [HDDVDRip / BDRip / WEB-DL / HDTV 1080/720р] Мама! / Mother! (Даррен Аронофски) [2017 г., ужасы, триллер, драма, WEB-DL 1080p] Rus (Dub iTunes) + Ukr (Dub iTunes) + Original + Sub makkol
6 | 0

1 | 745

21

06.12.2017 15:00

Зарубежное кино [HDDVDRip / BDRip / WEB-DL / HDTV 1080/720р] мама! / mother! (Даррен Аронофски / Darren Aronofsky) [2017 г., ужасы, триллер, драма, авторское кино, BDRip 1080p] Dub + Sub (Rus) 90ytr90
77 | 3

0 | 429

7

09.02.2018 16:56

Зарубежное кино [HDDVDRip / BDRip / WEB-DL / HDTV 1080/720р] мама! / mother! (Даррен Аронофски / Darren Aronofsky) [2017 г., ужасы, триллер, драма, авторское кино, BDRip 720p] Dub + Original (Eng) + Sub (Rus, Eng) 90ytr90
9 | 2

0 | 272

5

09.02.2018 17:07

Зарубежное кино [HDDVDRip / BDRip / WEB-DL / HDTV 1080/720р] мама! / mother! (Даррен Аронофски / Darren Aronofsky) [2017 г., ужасы, триллер, драма, авторское кино, BDRip 1080p] Dub + Original (Eng) + Sub (Rus, Eng) 90ytr90
15 | 4

0 | 412

10

09.02.2018 17:10

Зарубежное кино [HDDVDRip / BDRip / WEB-DL / HDTV 1080/720р] мама! / mother! (Даррен Аронофски / Darren Aronofsky) [2017 г., ужасы, триллер, драма, авторское кино, BDRip-AVC] Dub + Original (Eng) + Sub (Rus, Eng) 90ytr90
6 | 6

0 | 450

8

11.02.2018 08:39

Зарубежное кино [HDDVDRip / BDRip / WEB-DL / HDTV 1080/720р] мама! / mother! (Даррен Аронофски / Darren Aronofsky) [2017 г., ужасы, триллер, драма, авторское кино, BDRip 720p] Dub + Original (Eng) + Sub (Rus, Eng) 90ytr90
57 | 3

0 | 411

6

11.03.2018 08:02


Яндекс.Метрика powered by Sphinx


В Н И М А Н И Е
Сайт не распространяет и не хранит электронные версии произведений, а лишь бесплатно и без коммерческой выгоды (не требуя взамен платы,
SMS и т.д.) предоставляет доступ к создаваемому пользователями каталогу ссылок на торрент-файлы, которые содержат только списки хеш-сумм.
Убедительная просьба с жалобами обращаться напрямую к пользователю, разместившему торрент файл.

Вверх