Loading...
Error

Меч короля Артура / King Arthur: Legend of the Sword (Гай Ричи) [2017 г., фэнтези, боевик, драма, приключения, BDRemux 1080p] Dub + Original (Eng) + Sub (Rus, Eng)

Статистика раздачи
Размер:  24,96 GB   |    Зарегистрирован:  3 месяца 19 дней   |    Скачан:  3 раза

Полного источника не было: 1 месяц 19 дней

Сидов:  0  |  0 KB/s  ]   Личеров:  0  |  0 KB/s  ]

* - сиды/пиры с внешних источников

   
 
Автор Сообщение

90ytr90 

01-Мар-2018 08:56

Меч короля Артура / King Arthur: Legend of the Sword


Название: Меч короля Артура
Оригинальное название: King Arthur: Legend of the Sword
Год выхода: 2017
Жанр: Фэнтези, боевик, драма, приключения
Режиссер: Гай Ричи
В ролях: Чарли Ханнэм, Астрид Берже-Фрисби, Джуд Лоу, Джимон Хонсу, Эрик Бана, Эйден Гиллен, Фредди Фокс, Крэйг МакГинли, Том Ву, Кингсли Бен-Адир

Описание:
Молодой Артур живёт на задворках Лондиниума вместе со своей бандой. Он и понятия не имел о своём королевском происхождении, пока однажды не взял в руки меч Эскалибур. Меч начинает менять Артура. В результате он присоединяется к сопротивлению и таинственной молодой девушке по имени Гвиневра. Ему предстоит научиться понимать магическое оружие, которым он овладел, столкнуться со своими собственными демонами и объединить народ в борьбе против диктатора Вортигерна, убившего его родителей и завладевшего короной.



Страна: США
Студия: Safehouse Pictures, Village Roadshow Pictures, Warner Bros. Pictures, Weed Road Pictures, Wigram Productions
Продолжительность: 02:06:13
Перевод: Дублированный | Лицензия

Качество: BDRemux 1080p
Видео: MPEG-4 AVC, 1920x1080, 24.0 Mbit/s, 23.976 fps
Звук:
Аудио #01: 48 kHz, AC3, 5.1, 448 Kbps | Дублированный | RUS |
Аудио #02: 48 kHz, TrueHD, 7.1, 3748 Kbps | Оригинал | ENG |
Субтитры: Русские (forced, full), английские

General
Unique ID : 175532372081748937460491836547136503339 (0x840E4E1EF9DB0F498B6CAD7D4AF03E2B)
Complete name : F:VideoKing.Arthur.Legend.of.the.Sword.2017.Lic.BDREMUX.1080p.ExKinoRay.mkv
Format : Matroska
Format version : Version 4 / Version 2
File size : 25.0 GiB
Duration : 2 h 6 min
Overall bit rate mode : Variable
Overall bit rate : 28.3 Mb/s
Encoded date : UTC 2017-08-16 14:21:10
Writing application : mkvmerge v14.0.0 ('Flow') 64bit
Writing library : libebml v1.3.4 + libmatroska v1.4.5

Video
ID : 1
Format : AVC
Format/Info : Advanced Video Codec
Format profile : High@L4.1
Format settings, CABAC : Yes
Format settings, RefFrames : 4 frames
Codec ID : V_MPEG4/ISO/AVC
Duration : 2 h 6 min
Bit rate mode : Variable
Bit rate : 24.0 Mb/s
Maximum bit rate : 28.0 Mb/s
Width : 1 920 pixels
Height : 1 080 pixels
Display aspect ratio : 16:9
Frame rate mode : Constant
Frame rate : 23.976 (24000/1001) FPS
Color space : YUV
Chroma subsampling : 4:2:0
Bit depth : 8 bits
Scan type : Progressive
Bits/(Pixel*Frame) : 0.484
Stream size : 21.2 GiB (85%)
Language : English
Default : Yes
Forced : No

Audio #1
ID : 2
Format : AC-3
Format/Info : Audio Coding 3
Format settings, Endianness : Big
Codec ID : A_AC3
Duration : 2 h 6 min
Bit rate mode : Constant
Bit rate : 448 kb/s
Channel(s) : 6 channels
Channel positions : Front: L C R, Side: L R, LFE
Sampling rate : 48.0 kHz
Frame rate : 31.250 FPS (1536 SPF)
Bit depth : 16 bits
Compression mode : Lossy
Stream size : 404 MiB (2%)
Title : Dub {License]
Language : Russian
Service kind : Complete Main
Default : Yes
Forced : No

Audio #2
ID : 3
Format : TrueHD
Format profile : TrueHD+Atmos / TrueHD
Codec ID : A_TRUEHD
Duration : 2 h 6 min
Bit rate mode : Variable
Bit rate : 3 748 kb/s
Maximum bit rate : 6 243 kb/s
Channel(s) : Object Based / 8 channels
Channel positions : Object Based / Front: L C R, Side: L R, Back: L R, LFE
Sampling rate : / 48.0 kHz
Frame rate : 1 200.000 FPS (40 SPF)
Compression mode : Lossless
Stream size : 3.30 GiB (13%)
Title : Original
Language : English
Default : No
Forced : No

Text #1
ID : 4
Format : UTF-8
Codec ID : S_TEXT/UTF8
Codec ID/Info : UTF-8 Plain Text
Duration : 11 min 15 s
Bit rate : 12 b/s
Count of elements : 23
Stream size : 1.03 KiB (0%)
Language : Russian
Default : Yes
Forced : No

Text #2
ID : 5
Format : UTF-8
Codec ID : S_TEXT/UTF8
Codec ID/Info : UTF-8 Plain Text
Duration : 1 h 57 min
Bit rate : 71 b/s
Count of elements : 1106
Stream size : 61.2 KiB (0%)
Language : Russian
Default : No
Forced : No

Text #3
ID : 6
Format : UTF-8
Codec ID : S_TEXT/UTF8
Codec ID/Info : UTF-8 Plain Text
Duration : 2 h 3 min
Bit rate : 42 b/s
Count of elements : 1255
Stream size : 38.2 KiB (0%)
Language : English
Default : No
Forced : No

Text #4
ID : 7
Format : UTF-8
Codec ID : S_TEXT/UTF8
Codec ID/Info : UTF-8 Plain Text
Duration : 2 h 4 min
Bit rate : 46 b/s
Count of elements : 1452
Stream size : 42.5 KiB (0%)
Language : English
Default : No
Forced : No

Menu
00:00:00.000 : en:1
00:12:43.000 : en:2
00:21:05.000 : en:3
00:32:32.000 : en:4
00:43:09.000 : en:5
00:56:48.000 : en:6
01:06:48.000 : en:7
01:14:13.000 : en:8
01:23:44.000 : en:9
01:36:37.000 : en:10
01:46:57.000 : en:11
01:58:59.000 : en:12
Релиз от: Автор релиза:
Подпишись на меня, кликни по картинке [b]> : [/b]

Этот торрент недоступен для скачивания без регистрации, однако доступен по публичной magnet-ссылке (источники с публичных трекеров). Перед использованием ссылки прочтите, пожалуйста Пользовательское соглашение, а также как можно дольше оставайтесь на раздаче! Для того, чтобы скачать сам торрент-файл (который видит больше источников), а также для того, чтобы поблагодарить релизера, вам необходимо зарегистрироваться. Если регистрироваться лень - вы можете также попробовать скачать релиз по нашим партнерским ссылкам ниже. Кроме того, зарегистрированным пользователям не показывается всплывающая реклама при скачивании.

[underverse.me].t98417.torrent
Трекер: Зарегистрирован   [ 01.03.2018 08:56 ]  

Статус: * не проверено
Поблагодарили: пока никто не поблагодарил...
Тип торрента: публичный - доступные источники с открытых трекеров: 
Размер: 24,96 GB (занимает 5,7 DVDR, для записи нужно 6 болванок DVDR/RW)
 
 
Похожие темы
Форум Тема Автор Торрент Отв. Посл. сооб.
T Зарубежное кино [DVDRip, Low-Res HDRip, и т.д.] Меч короля Артура / King Arthur: Legend of the Sword (Гай Ричи) [2017 г., фэнтези, боевик, драма, приключения, HDTVRip] Dub (звук с TS) makkol
15 | 0

0 | 628

15

23.06.2017 21:52

T Зарубежное кино [DVDRip, Low-Res HDRip, и т.д.] Меч короля Артура / King Arthur: Legend of the Sword (Гай Ричи / Guy Ritchie) [2017 г., фэнтези, боевик, драма, приключения, HDTVRip] Dub (звук с TS) + hardsub (Kor) 90ytr90
7 | 0

0 | 933

38

24.06.2017 08:47

T Зарубежное кино [DVDRip, Low-Res HDRip, и т.д.] Меч короля Артура / King Arthur: Legend of the Sword (Гай Ричи) [2017 г., фэнтези, боевик, драма, приключения, HDTVRip] Dub (Line) makkol
30 | 4

0 | 1019

12

15.07.2017 22:03

T Зарубежное кино [DVDRip, Low-Res HDRip, и т.д.] Меч короля Артура / King Arthur: Legend of the Sword (Гай Ричи) [2017 г., фэнтези, боевик, драма, приключения, HDTVRip] Dub (Line) makkol
22 | 4

0 | 1194

39

15.07.2017 22:10

T Зарубежное кино [DVDRip, Low-Res HDRip, и т.д.] Меч короля Артура / King Arthur: Legend of the Sword (Гай Ричи) [2017 г., фэнтези, боевик, драма, приключения, HDRip] Dub (iTunes) makkol
86 | 5

0 | 1120

37

26.07.2017 11:27

T Зарубежное кино [DVDRip, Low-Res HDRip, и т.д.] Меч короля Артура / King Arthur: Legend of the Sword (Гай Ричи) [2017 г., фэнтези, боевик, драма, приключения, HDRip] Dub (iTunes) makkol
10 | 0

0 | 747

15

26.07.2017 11:36

T Зарубежное кино [DVDRip, Low-Res HDRip, и т.д.] Меч короля Артура / King Arthur: Legend of the Sword (Гай Ричи) [2017 г., фэнтези, боевик, драма, приключения, HDRip-AVC] Dub (Rus, iTunes) + Dub (Ukr, iTunes) + Original + Sub makkol
10 | 3

0 | 1092

36

26.07.2017 12:21

Зарубежное кино [DVDRip, Low-Res HDRip, и т.д.] Меч короля Артура / King Arthur: Legend of the Sword (Гай Ричи) [2017 г., фэнтези, боевик, драма, приключения, BDRip] Dub 90ytr90
99 | 4

0 | 259

6

01.03.2018 09:45

Зарубежное кино [DVDRip, Low-Res HDRip, и т.д.] Меч короля Артура / King Arthur: Legend of the Sword (Гай Ричи) [2017 г., фэнтези, боевик, драма, приключения, BDRip] Dub + Sub (Rus 90ytr90
21 | 6

0 | 483

17

01.03.2018 09:48

Зарубежное кино [DVDRip, Low-Res HDRip, и т.д.] Меч короля Артура / King Arthur: Legend of the Sword (Гай Ричи / Guy Ritchie) [2017 г., фэнтези, боевик, драма, приключения, BDRip-AVC] Dub + Original (Eng) + Sub (Rus, Eng) 90ytr90
272 | 9

0 | 323

12

01.03.2018 09:58


Яндекс.Метрика powered by Sphinx


В Н И М А Н И Е
Сайт не распространяет и не хранит электронные версии произведений, а лишь бесплатно и без коммерческой выгоды (не требуя взамен платы,
SMS и т.д.) предоставляет доступ к создаваемому пользователями каталогу ссылок на торрент-файлы, которые содержат только списки хеш-сумм.
Убедительная просьба с жалобами обращаться напрямую к пользователю, разместившему торрент файл.

Вверх