Loading...
Error

Сплит / Split (М. Найт Шьямалан / M. Night Shyamalan) [2016 г., ужасы, триллер, BDRemux 1080p] Dub + MVO (Paradox & Omskbird) + 2xAVO (Сербин, Есарев) + Original (Eng) + Sub (Rus, Eng)

Статистика раздачи
Размер:  38,73 GB   |    Зарегистрирован:  3 месяца 21 день   |    Скачан:  1 раз

Полного источника не было: 3 месяца 7 дней

Сидов:  0  |  0 KB/s  ]   Личеров:  0  |  0 KB/s  ]

* - сиды/пиры с внешних источников

   
 
Автор Сообщение

90ytr90 

03-Мар-2018 10:51

Сплит / Split
«Внутри Кевина живут 23 личности. Вскоре еще одна явит себя миру»

Страна: США
Год выпуска: 2016
Жанр: ужасы, триллер
Продолжительность: 01:57:07
Озвучивание:
  • профессиональное (полное дублирование) [лицензия]
  • любительское (многоголосое закадровое) [Paradox" & Omskbird records]
  • авторское (одноголосое закадровое) [Ю.Сербин]
  • авторское (одноголосое закадровое) [Д.Есарев]
  • оригинальная звуковая дорожка [английский]

Режиссёр: М. Найт Шьямалан / M. Night Shyamalan

В ролях: Джеймс МакЭвой (Dennis / Patricia / Hedwig / The Beast / Kevin Wendell Crumb / Barry / Orwell / Jade), Аня Тейлор-Джой (Casey Cooke), Бетти Бакли (Dr. Karen Fletcher), Хейли Лу Ричардсон (Claire Benoit), Джессика Сула (Marcia), Иззи Коффи (Five-Year-Old Casey), Брэд Уильям Хенке (Uncle John), Себастьян Арселус (Casey's Father), Нил Хафф (Mr. Benoit), Уки Вашингтон (News Anchor), Энн Вуд (Game Show Enthusiast), Роберт Майкл Келли (Joe)


Сюжет фильма:
Cредь бела дня с многолюдной парковки незнакомец похищает трёх школьниц. Они приходят в себя в закрытом помещении, а в душе владельца таятся 23 лика страха. Сменяя друг друга, личности ведут обычную для них жизнь — работают и ходят к психотерапевту, периодически напоминая пленницам, что они дожидаются 24-ю личность, которая скоро явит себя миру.

  • Дата мировой премьеры: 26 сентября 2016
  • Дата российской премьеры: 16 марта 2017, «UPI»
  • Дата украинской премьеры: 16 марта 2017, «B&H Film Distribution Company»
             
Качество видео: BDRemux 1080p
Формат: MKV
Видео: AVC, 1920x1080 (16:9), 34.8 Mbps, 37 Mbps, 23.976 (24000/1001) fps, 0.701 bit/pixel
Аудио #1: DTS, 768 kbps, 6 ch, 48 kHz, Dub [лицензия]
Аудио #2: DTS, 1510 kbps, 6 ch, 48 kHz, MVO [Paradox" & Omskbird records]
Аудио #3: DTS-HD MA, 3402 kbps/1509 kbps, 6 ch, 48 kHz, AVO [Сербин]
Аудио #4: DTS-HD MA, 3397 kbps/1509 kbps, 6 ch, 48 kHz, AVO [Есарев]
Аудио #5: DTS-HD MA, 3408 kbps/1509 kbps, 6 ch, 48 kHz, Original [English]
Субтитры: Russian (forced, full), English (full, SDH, SDH, Colored)
Навигация по главам: есть (20)



Общее
Уникальный идентификатор : 172008313045676554723040060408407435358 (0x816798988E57AC858030A6FA5E5AA85E)
Полное имя : D:\РЕМУКС!!!!!\Сплит (Расстройство личности).BDRemux..mkv
Формат : Matroska
Версия формата : Version 4 / Version 2
Размер файла : 38,7 Гбайт
Продолжительность : 1 ч. 57 м.
Режим общего битрейта : Переменный
Общий поток : 47,3 Мбит/сек
Название фильма : Сплит (Расстройство личности).BDRemux.thx:SPOMOPS
Дата кодирования : UTC 2018-02-03 06:09:58
Программа кодирования : mkvmerge v8.3.0 ('Over the Horizon') 64bit
Библиотека кодирования : libebml v1.3.1 + libmatroska v1.4.2
Обложка : Yes
Attachments : cover.jpg

Видео
Идентификатор : 1
Формат : AVC
Формат/Информация : Advanced Video Codec
Профиль формата : High@L4.1
Настройки формата : CABAC / 4 Ref Frames
Параметр CABAC формата : Да
Параметр RefFrames формата : 4 кадра
Идентификатор кодека : V_MPEG4/ISO/AVC
Продолжительность : 1 ч. 57 м.
Вид битрейта : Переменный
Битрейт : 34,8 Мбит/сек
Максимальный битрейт : 37,0 Мбит/сек
Ширина : 1920 пикселей
Высота : 1080 пикселей
Соотношение сторон : 16:9
Режим частоты кадров : Постоянный
Частота кадров : 23,976 (24000/1001) кадра/сек
Цветовое пространство : YUV
Субдискретизация насыщенности : 4:2:0
Битовая глубина : 8 бит
Тип развёртки : Прогрессивная
Бит/(Пиксели*Кадры) : 0.701
Размер потока : 28,5 Гбайт (74%)
Язык : English
Default : Да
Forced : Нет

Аудио #1
Идентификатор : 2
Формат : DTS
Формат/Информация : Digital Theater Systems
Идентификатор кодека : A_DTS
Продолжительность : 1 ч. 57 м.
Вид битрейта : Постоянный
Битрейт : 768 Кбит/сек
Каналы : 6 каналов
Расположение каналов : Front: L C R, Side: L R, LFE
Частота : 48,0 КГц
Частота кадров : 93,750 кадра/сек (512 SPF)
Битовая глубина : 24 бит
Метод сжатия : С потерями
Размер потока : 643 Мбайт (2%)
Заголовок : Русский - Дубляж
Язык : Russian
Default : Да
Forced : Нет

Аудио #2
Идентификатор : 3
Формат : DTS
Формат/Информация : Digital Theater Systems
Идентификатор кодека : A_DTS
Продолжительность : 1 ч. 57 м.
Вид битрейта : Постоянный
Битрейт : 1510 Кбит/сек
Каналы : 6 каналов
Расположение каналов : Front: L C R, Side: L R, LFE
Частота : 48,0 КГц
Частота кадров : 93,750 кадра/сек (512 SPF)
Битовая глубина : 24 бит
Метод сжатия : С потерями
Размер потока : 1,24 Гбайт (3%)
Заголовок : Русский - ПМ ("Paradox" & Omskbird records)
Язык : Russian
Default : Нет
Forced : Нет

Аудио #3
Идентификатор : 4
Формат : DTS
Формат/Информация : Digital Theater Systems
Профиль формата : MA / Core
Идентификатор кодека : A_DTS
Продолжительность : 1 ч. 57 м.
Вид битрейта : Переменный / Постоянный
Битрейт : 3402 Кбит/сек / 1509 Кбит/сек
Каналы : 6 каналов
Расположение каналов : Front: L C R, Side: L R, LFE
Частота : 48,0 КГц
Частота кадров : 93,750 кадра/сек (512 SPF)
Битовая глубина : 24 бит
Метод сжатия : Без потерь / Lossy
Размер потока : 2,78 Гбайт (7%)
Заголовок : Русский - АП (Сербин)
Язык : Russian
Default : Нет
Forced : Нет

Аудио #4
Идентификатор : 5
Формат : DTS
Формат/Информация : Digital Theater Systems
Профиль формата : MA / Core
Идентификатор кодека : A_DTS
Продолжительность : 1 ч. 57 м.
Вид битрейта : Переменный / Постоянный
Битрейт : 3397 Кбит/сек / 1509 Кбит/сек
Каналы : 6 каналов
Расположение каналов : Front: L C R, Side: L R, LFE
Частота : 48,0 КГц
Частота кадров : 93,750 кадра/сек (512 SPF)
Битовая глубина : 24 бит
Метод сжатия : Без потерь / Lossy
Размер потока : 2,78 Гбайт (7%)
Заголовок : Русский АП (Есарев)
Язык : Russian
Default : Нет
Forced : Нет

Аудио #5
Идентификатор : 6
Формат : DTS
Формат/Информация : Digital Theater Systems
Профиль формата : MA / Core
Идентификатор кодека : A_DTS
Продолжительность : 1 ч. 57 м.
Вид битрейта : Переменный / Постоянный
Битрейт : 3408 Кбит/сек / 1509 Кбит/сек
Каналы : 6 каналов
Расположение каналов : Front: L C R, Side: L R, LFE
Частота : 48,0 КГц
Частота кадров : 93,750 кадра/сек (512 SPF)
Битовая глубина : 24 бит
Метод сжатия : Без потерь / Lossy
Размер потока : 2,79 Гбайт (7%)
Заголовок : Английский
Язык : English
Default : Нет
Forced : Нет

Текст #1
Идентификатор : 7
Формат : UTF-8
Идентификатор кодека : S_TEXT/UTF8
Идентификатор кодека/Информация : UTF-8 Plain Text
Продолжительность : 1 ч. 52 м.
Битрейт : 0 бит/сек
ElementCount : 18
Размер потока : 460 байт (0%)
Заголовок : Русские - Forced
Язык : Russian
Default : Да
Forced : Нет

Текст #2
Идентификатор : 8
Формат : UTF-8
Идентификатор кодека : S_TEXT/UTF8
Идентификатор кодека/Информация : UTF-8 Plain Text
Продолжительность : 1 ч. 56 м.
Битрейт : 58 бит/сек
ElementCount : 1226
Размер потока : 49,4 Кбайт (0%)
Заголовок : Русские
Язык : Russian
Default : Нет
Forced : Нет

Текст #3
Идентификатор : 9
Формат : UTF-8
Идентификатор кодека : S_TEXT/UTF8
Идентификатор кодека/Информация : UTF-8 Plain Text
Продолжительность : 1 ч. 53 м.
Битрейт : 43 бит/сек
ElementCount : 1274
Размер потока : 36,3 Кбайт (0%)
Заголовок : Английские
Язык : English
Default : Нет
Forced : Нет

Текст #4
Идентификатор : 10
Формат : UTF-8
Идентификатор кодека : S_TEXT/UTF8
Идентификатор кодека/Информация : UTF-8 Plain Text
Продолжительность : 1 ч. 51 м.
Битрейт : 48 бит/сек
ElementCount : 1397
Размер потока : 39,3 Кбайт (0%)
Заголовок : Английские - SDH
Язык : English
Default : Нет
Forced : Нет

Текст #5
Идентификатор : 11
Формат : UTF-8
Идентификатор кодека : S_TEXT/UTF8
Идентификатор кодека/Информация : UTF-8 Plain Text
Продолжительность : 1 ч. 53 м.
Битрейт : 57 бит/сек
ElementCount : 1399
Размер потока : 47,8 Кбайт (0%)
Заголовок : Английские - SDH (Colored)
Язык : English
Default : Нет
Forced : Нет

Меню
00:00:00.000 : en:Chapter 1
00:06:08.451 : en:Chapter 2
00:14:19.024 : en:Chapter 3
00:20:49.373 : en:Chapter 4
00:24:14.536 : en:Chapter 5
00:28:37.048 : en:Chapter 6
00:35:47.979 : en:Chapter 7
00:42:35.386 : en:Chapter 8
00:49:06.068 : en:Chapter 9
00:54:09.412 : en:Chapter 10
01:00:24.495 : en:Chapter 11
01:06:22.561 : en:Chapter 12
01:12:31.221 : en:Chapter 13
01:19:35.771 : en:Chapter 14
01:25:25.829 : en:Chapter 15
01:29:16.559 : en:Chapter 16
01:34:08.225 : en:Chapter 17
01:40:45.998 : en:Chapter 18
01:47:40.287 : en:Chapter 19
01:52:26.740 : en:Chapter 20

Перевод Д. Есарева доступен благодаря пользователям переулка Переводмана: Loki1982, mrTvister, iNstIGGAtor, Shrooms, СерП, shandorra, walledol, Литти, mestereo2110, iVov4ik, napaHouk, ivan_aka_flint, mihey10, miklob, Skvor
Работа со звуком - Переводман.


pic pic pic
Для увеличения картинки щелкните мышкой по превью



pic pic pic pic pic pic

Этот торрент недоступен для скачивания без регистрации, однако доступен по публичной magnet-ссылке (источники с публичных трекеров). Перед использованием ссылки прочтите, пожалуйста Пользовательское соглашение, а также как можно дольше оставайтесь на раздаче! Для того, чтобы скачать сам торрент-файл (который видит больше источников), а также для того, чтобы поблагодарить релизера, вам необходимо зарегистрироваться. Если регистрироваться лень - вы можете также попробовать скачать релиз по нашим партнерским ссылкам ниже. Кроме того, зарегистрированным пользователям не показывается всплывающая реклама при скачивании.

[underverse.me].t98717.torrent
Трекер: Зарегистрирован   [ 03.03.2018 10:51 ]  

Статус: * не проверено
Поблагодарили: пока никто не поблагодарил...
Тип торрента: публичный - доступные источники с открытых трекеров: 
Размер: 38,73 GB (занимает 8,85 DVDR, для записи нужно 9 болванок DVDR/RW)
 
 
Похожие темы
Форум Тема Автор Торрент Отв. Посл. сооб.
T Зарубежное кино [DVDRip, Low-Res HDRip, и т.д.] Сплит / Split (Джэми Бакнер) [2016 г., мелодрама, комедия, спорт, WEB-DLRip] MVO (Синема УС) makkol
1 | 3

0 | 837

2

21.02.2017 14:11

Зарубежное кино [DVDRip, Low-Res HDRip, и т.д.] Сплит / Split (М. Найт Шьямалан / M. Night Shyamalan) [2016 г., ужасы, триллер, BDRip] Dub + Sub (Rus) 90ytr90
942 | 13

0 | 956

9

21.06.2017 10:38

Зарубежное кино [DVDRip, Low-Res HDRip, и т.д.] Сплит / Split (М. Найт Шьямалан / M. Night Shyamalan) [2016 г., ужасы, триллер, HDRip] Dub + Sub (Rus) 90ytr90
17 | 2

0 | 392

0

21.06.2017 10:44

Зарубежное кино [DVDRip, Low-Res HDRip, и т.д.] Сплит / Split (М. Найт Шьямалан / M. Night Shyamalan) [2016 г., ужасы, триллер, BDRip] Dub + Sub (Rus) 90ytr90
15 | 0

0 | 370

8

21.06.2017 12:01

Зарубежное кино [DVDRip, Low-Res HDRip, и т.д.] Сплит / Split (М. Найт Шьямалан / M. Night Shyamalan) [2016 г., ужасы, триллер, BDRip-AVC] Dub + Sub (Rus) 90ytr90
43 | 4

0 | 284

3

21.06.2017 12:14

Зарубежное кино [DVDRip, Low-Res HDRip, и т.д.] Сплит / Split (М. Найт Шьямалан / M. Night Shyamalan) [2016 г., ужасы, триллер, BDRip-AVC] Dub + Original (Eng) + Sub (Rus, Eng) 90ytr90
33 | 1

0 | 446

7

21.06.2017 12:20

Зарубежное кино [DVDRip, Low-Res HDRip, и т.д.] Сплит / Split (М. Найт Шьямалан / M. Night Shyamalan) [2016 г., ужасы, триллер, HDRip] AVO (Есарев) 90ytr90
18 | 0

0 | 384

1

21.06.2017 12:33

Зарубежное кино [HDDVDRip / BDRip / WEB-DL / HDTV 1080/720р] Сплит / Split (М. Найт Шьямалан / M. Night Shyamalan) [2016 г., ужасы, триллер, BDRip 1080p] Dub + Original (Eng) + Sub (Rus, Eng) 90ytr90
144 | 9

0 | 790

10

21.06.2017 10:55

Зарубежное кино [HDDVDRip / BDRip / WEB-DL / HDTV 1080/720р] Сплит / Split (М. Найт Шьямалан / M. Night Shyamalan) [2016 г., ужасы, триллер, BDRip 1080p] Dub + AVO (Есарев) + Original (Eng) + Sub (Rus, Eng) 90ytr90
22 | 3

0 | 420

3

21.06.2017 11:06

Зарубежное кино [HDDVDRip / BDRip / WEB-DL / HDTV 1080/720р] Сплит / Split (М. Найт Шьямалан / M. Night Shyamalan) [2016 г., ужасы, триллер, BDRip 1080p] Dub + MVO (Paradox & Omskbird) + AVO (Есарев) + Original (Eng) + Sub (Rus, Eng) 90ytr90
17 | 5

0 | 455

2

21.06.2017 11:23


Яндекс.Метрика powered by Sphinx


В Н И М А Н И Е
Сайт не распространяет и не хранит электронные версии произведений, а лишь бесплатно и без коммерческой выгоды (не требуя взамен платы,
SMS и т.д.) предоставляет доступ к создаваемому пользователями каталогу ссылок на торрент-файлы, которые содержат только списки хеш-сумм.
Убедительная просьба с жалобами обращаться напрямую к пользователю, разместившему торрент файл.

Вверх