Loading...
Error

Прибытие / Arrival (Дени Вильнёв / Denis Villeneuve) [2016 г., фантастика, триллер, драма, детектив, BDRemux 1080p] Dub + Original (Eng) + Sub (Rus, Eng)

Статистика раздачи
Размер:  26,17 GB   |    Зарегистрирован:  3 месяца 17 дней   |    Скачан:  1 раз

Полного источника не было: 3 месяца 6 дней

Сидов:  0  |  0 KB/s  ]   Личеров:  0  |  0 KB/s  ]

* - сиды/пиры с внешних источников

   
 
Автор Сообщение

90ytr90 

05-Мар-2018 12:58

Прибытие / Arrival


Название: Прибытие
Оригинальное название: Arrival
Год выпуска: 2016
Жанр: Фантастика, триллер, драма, детектив, экранизация
Режиссёр: Дени Вильнёв
Актеры: Эми Адамс, Джереми Реннер, Майкл Стулбарг, Форест Уитакер, Сангита Патель, Марк О’Брайэн, Эбигейл Пнёвски, Ци Ма, Натали Тибо, Рут Чианг, Анана Ридвальд, Расселл Юэнь, Фрэнк Фиола, Ларри Дэй, Пэт Кили, Джо Кобден, Джулиан Кэйси, Эндрю Шэйвер, Макс Уолкер, Кристиан Джада, Женевьева Сироис, Мустафа Хайдари, Кэтлин Ставерт, Шон Кэмпбелл

Описание:
В разных уголках планеты внезапно появляются неопознанные летающие объекты. Они мирно зависают над поверхностью и всем своим видом демонстрируют полное равнодушие к населению. Цели их визита неизвестны, язык не узнаваем и вообще никто ничего не понимает. Стремясь установить с инопланетянами контакт, и обойтись без танковых клиньев, правительство привлекает к этому крайне запутанному делу лингвиста Луизу Бэнкс и физика Яна Доннели. Им необходимо понять замыслы пришельцев до того, пока кто-нибудь из военных на почве нервного срыва не решится превратить весь мир в могильник с ядерными отходами. В основе фильма лежит повесть Теда Чана «История твоей жизни» (Story of Your Life, 1998).



Страна: США
Студия: 21 Laps Entertainment, FilmNation Entertainment, Lava Bear Films
Продолжительность: 01:56:23
Перевод: Дублированный | Лицензия

Качество: BDRemux 1080p
Видео: MPEG-4 AVC, 1920x1080, 27.3 Mbit/s, 23.976 fps
Аудио:
Аудио #01: 48 kHz, AC3, 5.1, 640 Kbps | Дублированный |
Аудио #02: 48 kHz, DTS-HD MA, 7.1, 4207 kbps | Оригинал |
Субтитры: Русские (forced, full), английские
General
Unique ID : 186405863996712361685779699644943948917 (0x8C3C76A9C674E61CB7E27A6E2E95DC75)
Complete name : F:VideoArrival.2016.D.BDREMUX.1080p.ExKinoRay.mkv
Format : Matroska
Format version : Version 4 / Version 2
File size : 26.2 GiB
Duration : 1 h 56 min
Overall bit rate mode : Variable
Overall bit rate : 32.2 Mb/s
Encoded date : UTC 2017-03-03 19:08:27
Writing application : mkvmerge v8.3.0 ('Over the Horizon') 64bit
Writing library : libebml v1.3.1 + libmatroska v1.4.2
Cover : Yes
Attachments : cover.jpg

Video
ID : 1
Format : AVC
Format/Info : Advanced Video Codec
Format profile : High@L4.1
Format settings, CABAC : Yes
Format settings, ReFrames : 2 frames
Format settings, GOP : M=1, N=10
Codec ID : V_MPEG4/ISO/AVC
Duration : 1 h 56 min
Bit rate mode : Variable
Bit rate : 27.3 Mb/s
Width : 1 920 pixels
Height : 1 080 pixels
Display aspect ratio : 16:9
Frame rate mode : Constant
Frame rate : 23.976 (24000/1001) FPS
Color space : YUV
Chroma subsampling : 4:2:0
Bit depth : 8 bits
Scan type : Progressive
Bits/(Pixel*Frame) : 0.550
Stream size : 22.2 GiB (85%)
Language : English
Default : Yes
Forced : No

Audio #1
ID : 2
Format : AC-3
Format/Info : Audio Coding 3
Mode extension : CM (complete main)
Format settings, Endianness : Big
Codec ID : A_AC3
Duration : 1 h 56 min
Bit rate mode : Constant
Bit rate : 640 kb/s
Channel(s) : 6 channels
Channel positions : Front: L C R, Side: L R, LFE
Sampling rate : 48.0 kHz
Frame rate : 31.250 FPS (1536 spf)
Bit depth : 16 bits
Compression mode : Lossy
Stream size : 533 MiB (2%)
Title : Dub [License]
Language : Russian
Default : Yes
Forced : No

Audio #2
ID : 3
Format : DTS
Format/Info : Digital Theater Systems
Format profile : MA / Core
Mode : 16
Format settings, Endianness : Big
Codec ID : A_DTS
Duration : 1 h 56 min
Bit rate mode : Variable / Constant
Bit rate : 4 207 kb/s / 1 509 kb/s
Channel(s) : 8 channels / 6 channels
Channel positions : Front: L C R, Side: L R, Back: L R, LFE / Front: L C R, Side: L R, LFE
Sampling rate : 48.0 kHz
Frame rate : 93.750 FPS (512 spf)
Bit depth : 24 bits
Compression mode : Lossless / Lossy
Stream size : 3.42 GiB (13%)
Title : Original
Language : English
Default : No
Forced : No

Text #1
ID : 4
Format : UTF-8
Codec ID : S_TEXT/UTF8
Codec ID/Info : UTF-8 Plain Text
Duration : 40 min 3 s
Bit rate : 1 b/s
Count of elements : 13
Stream size : 552 Bytes (0%)
Title : Forced
Language : Russian
Default : Yes
Forced : No

Text #2
ID : 5
Format : UTF-8
Codec ID : S_TEXT/UTF8
Codec ID/Info : UTF-8 Plain Text
Duration : 1 h 49 min
Bit rate : 72 b/s
Count of elements : 759
Stream size : 57.7 KiB (0%)
Title : Full
Language : Russian
Default : No
Forced : No

Text #3
ID : 6
Format : UTF-8
Codec ID : S_TEXT/UTF8
Codec ID/Info : UTF-8 Plain Text
Duration : 1 h 48 min
Bit rate : 53 b/s
Count of elements : 1219
Stream size : 42.8 KiB (0%)
Title : Full
Language : English
Default : No
Forced : No

Menu
00:00:00.000 : en:00:00:00.000
00:09:49.923 : en:00:09:49.923
00:17:33.552 : en:00:17:33.552
00:23:28.282 : en:00:23:28.282
00:33:54.157 : en:00:33:54.157
00:41:01.709 : en:00:41:01.709
00:52:26.101 : en:00:52:26.101
00:57:34.576 : en:00:57:34.576
01:03:06.449 : en:01:03:06.449
01:09:29.207 : en:01:09:29.207
01:16:09.398 : en:01:16:09.398
01:25:21.825 : en:01:25:21.825
01:35:37.065 : en:01:35:37.065
01:45:26.695 : en:01:45:26.695


Релиз от: Автор релиза:

Этот торрент недоступен для скачивания без регистрации, однако доступен по публичной magnet-ссылке (источники с публичных трекеров). Перед использованием ссылки прочтите, пожалуйста Пользовательское соглашение, а также как можно дольше оставайтесь на раздаче! Для того, чтобы скачать сам торрент-файл (который видит больше источников), а также для того, чтобы поблагодарить релизера, вам необходимо зарегистрироваться. Если регистрироваться лень - вы можете также попробовать скачать релиз по нашим партнерским ссылкам ниже. Кроме того, зарегистрированным пользователям не показывается всплывающая реклама при скачивании.

[underverse.me].t99019.torrent
Трекер: Зарегистрирован   [ 05.03.2018 12:58 ]  

Статус: * не проверено
Поблагодарили: пока никто не поблагодарил...
Тип торрента: публичный - доступные источники с открытых трекеров: 
Размер: 26,17 GB (занимает 5,98 DVDR, для записи нужно 6 болванок DVDR/RW)
 
 
Похожие темы
Форум Тема Автор Торрент Отв. Посл. сооб.
Зарубежное кино [DVDRip, Low-Res HDRip, и т.д.] Прибытие / Arrival (Дени Вильнёв / Denis Villeneuve) [2016 г., фантастика, триллер, драма, детектив, BDRip-AVC] Dub + Sub (Rus) 90ytr90
1 | 0

0 | 515

13

04.03.2017 06:50

Зарубежное кино [DVDRip, Low-Res HDRip, и т.д.] Прибытие / Arrival (Дени Вильнёв / Denis Villeneuve) [2016 г., фантастика, триллер, драма, детектив, BDRip-AVC] Dub + Original (Eng) + Sub (Rus, Eng) 90ytr90
2 | 0

0 | 497

13

04.03.2017 06:40

Зарубежное кино [DVDRip, Low-Res HDRip, и т.д.] Прибытие / Arrival (Дени Вильнёв / Denis Villeneuve) [2016 г., фантастика, триллер, драма, детектив, WEB-DLRip] MVO (Paradox & Omskbird records) 90ytr90
22 | 2

0 | 1344

16

31.01.2017 16:18

Зарубежное кино [DVDRip, Low-Res HDRip, и т.д.] Прибытие / Arrival (Дени Вильнёв / Denis Villeneuve) [2016 г., фантастика, триллер, драма, детектив, HDRip] MVO (Paradox & Omskbird records) 90ytr90
17 | 3

0 | 1167

20

01.02.2017 17:56

Зарубежное кино [DVDRip, Low-Res HDRip, и т.д.] Прибытие / Arrival (Дени Вильнёв / Denis Villeneuve) [2016 г., фантастика, триллер, драма, детектив, HDRip] AVO (Матвеев) 90ytr90
7 | 3

0 | 1149

9

02.02.2017 18:43

Зарубежное кино [DVDRip, Low-Res HDRip, и т.д.] Прибытие / Arrival (Дени Вильнёв / Denis Villeneuve) [2016 г., фантастика, триллер, драма, детектив, BDRip] Dub + Sub (Rus) 90ytr90
25 | 0

0 | 665

17

03.03.2017 19:01

Зарубежное кино [DVDRip, Low-Res HDRip, и т.д.] Прибытие / Arrival (Дени Вильнёв / Denis Villeneuve) [2016 г., фантастика, триллер, драма, детектив, BDRip] Dub + Sub (Rus) 90ytr90
2 | 0

0 | 468

4

03.03.2017 19:21

* Зарубежное кино [DVD / HDDVD / BD / Remux] Прибытие / Arrival (Дени Вильнёв / Denis Villeneuve) [2016 г., фантастика, триллер, драма, детектив, BD EUR 1080p] Dub 90ytr90
2 | 0

0 | 116

0

05.03.2018 12:56

Зарубежное кино [HDDVDRip / BDRip / WEB-DL / HDTV 1080/720р] Прибытие / Arrival (Дени Вильнёв / Denis Villeneuve) [2016 г., фантастика, триллер, драма, детектив, BDRip 720p] Dub + 2xAVO (Матвеева, Есарев) + Original (Eng) + Sub (Rus, Eng) 90ytr90
5 | 0

0 | 506

10

04.03.2017 07:07

Зарубежное кино [HDDVDRip / BDRip / WEB-DL / HDTV 1080/720р] Прибытие / Arrival (Дени Вильнёв / Denis Villeneuve) [2016 г., фантастика, триллер, драма, детектив, WEB-DL 1080p] MVO (Paradox & Omskbird records) + Original (Eng) + Sub (Eng) 90ytr90
17 | 3

0 | 1586

36

31.01.2017 16:19


Яндекс.Метрика powered by Sphinx


В Н И М А Н И Е
Сайт не распространяет и не хранит электронные версии произведений, а лишь бесплатно и без коммерческой выгоды (не требуя взамен платы,
SMS и т.д.) предоставляет доступ к создаваемому пользователями каталогу ссылок на торрент-файлы, которые содержат только списки хеш-сумм.
Убедительная просьба с жалобами обращаться напрямую к пользователю, разместившему торрент файл.

Вверх