Loading...
Error

Битва полов / Battle of the Sexes (Джонатан Дэйтон / Jonathan Dayton, Валери Фэрис / Valerie Faris) [2017 г., драма, комедия, биография, спорт, BDRemux 1080p] MVO + Original (Eng) + Sub (Rus, Eng)

Статистика раздачи
Размер:  31,52 GB   |    Зарегистрирован:  3 месяца 19 дней   |    Скачан:  1 раз
Сидов:  1  |  0 KB/s  ]   Личеров:  0  |  0 KB/s  ]

* - сиды/пиры с внешних источников

   
 
Автор Сообщение

90ytr90 

06-Мар-2018 07:47

Битва полов / Battle of the Sexes


Название: Битва полов
Оригинальное название: Battle of the Sexes
Год выхода: 2017
Жанр: Драма, комедия, биография, спорт
Режиссёр: Джонатан Дэйтон, Валери Фэрис
В фильме снимались: Эмма Стоун, Стив Карелл, Андреа Райзборо, Натали Моралес, Сара Силверман, Билл Пуллман, Алан Камминг, Элизабет Шу, Эрик Кристиан Олсен, Фред Армисен

Описание:
История соперничества между 55-летним чемпионом Уимблдона Бобби Риггсом и 29-летней теннисисткой Билли Джин Кинг. Легендарный матч, прошедший в 1973 году, собрал возле экранов более 50 миллионов американцев и доказал, что профессиональные спортсменки способны на равных состязаться с коллегами-мужчинами.



Страна: Великобритания, США
Студия: Fox Searchlight Pictures
Продолжительность: 02:01:39
Перевод: Профессиональный многоголосый | Лицензия

Качество: BDRemux 1080p
Видео: MPEG-4 AVC, 1920x1080, 31.3 Mbit/s, 23.976 fps
Аудио:
Аудио #01: 48 kHz, DTS, 5.1, 768 Kbps | Лицензия | RUS |
Аудио #02: 48 kHz, AC3, 5.1, 448 Kbps | Лицензия | RUS |
Аудио #03: 48 kHz, DTS-HD MA, 7.1, 4589 Kbps | Оригинал | ENG |
Субтитры: Русские (full), английские

General
Unique ID : 173321991048814288836066712338496780038 (0x826499EC0E3C95414B7F6DF6FACC7706)
Complete name : G:VideoSSDThe.Battle.of.the.Sexes.2017.BDREMUX.1080p.ExKinoRay.mkv
Format : Matroska
Format version : Version 4 / Version 2
File size : 31.5 GiB
Duration : 2 h 1 min
Overall bit rate mode : Variable
Overall bit rate : 37.1 Mb/s
Movie name : Battle of the Sexes 2017 from ExKinoRay
Encoded date : UTC 2017-12-25 01:41:49
Writing application : mkvmerge v19.0.0 ('Brave Captain') 64-bit
Writing library : libebml v1.3.5 + libmatroska v1.4.8

Video
ID : 1
Format : AVC
Format/Info : Advanced Video Codec
Format profile : High@L4.1
Format settings : CABAC / 4 Ref Frames
Format settings, CABAC : Yes
Format settings, ReFrames : 4 frames
Codec ID : V_MPEG4/ISO/AVC
Duration : 2 h 1 min
Bit rate mode : Variable
Bit rate : 31.3 Mb/s
Maximum bit rate : 33.1 Mb/s
Width : 1 920 pixels
Height : 1 080 pixels
Display aspect ratio : 16:9
Frame rate mode : Constant
Frame rate : 23.976 (24000/1001) FPS
Color space : YUV
Chroma subsampling : 4:2:0
Bit depth : 8 bits
Scan type : Progressive
Bits/(Pixel*Frame) : 0.629
Stream size : 26.6 GiB (84%)
Language : English
Default : Yes
Forced : No

Audio #1
ID : 2
Format : DTS
Format/Info : Digital Theater Systems
Codec ID : A_DTS
Duration : 2 h 1 min
Bit rate mode : Constant
Bit rate : 768 kb/s
Channel(s) : 6 channels
Channel positions : Front: L C R, Side: L R, LFE
Sampling rate : 48.0 kHz
Frame rate : 93.750 FPS (512 SPF)
Bit depth : 24 bits
Compression mode : Lossy
Stream size : 668 MiB (2%)
Title : Dub [License]
Language : Russian
Default : Yes
Forced : No

Audio #2
ID : 3
Format : AC-3
Format/Info : Audio Coding 3
Codec ID : A_AC3
Duration : 2 h 1 min
Bit rate mode : Constant
Bit rate : 448 kb/s
Channel(s) : 6 channels
Channel positions : Front: L C R, Side: L R, LFE
Sampling rate : 48.0 kHz
Frame rate : 31.250 FPS (1536 SPF)
Bit depth : 16 bits
Compression mode : Lossy
Stream size : 390 MiB (1%)
Title : Dub [License]
Language : Russian
Service kind : Complete Main
Default : No
Forced : No

Audio #3
ID : 4
Format : DTS
Format/Info : Digital Theater Systems
Format profile : MA / Core
Codec ID : A_DTS
Duration : 2 h 1 min
Bit rate mode : Variable / Constant
Bit rate : 4 589 kb/s / 1 509 kb/s
Channel(s) : 8 channels / 6 channels
Channel positions : Front: L C R, Side: L R, Back: L R, LFE / Front: L C R, Side: L R, LFE
Sampling rate : 48.0 kHz
Frame rate : 93.750 FPS (512 SPF)
Bit depth : 24 bits
Compression mode : Lossless / Lossy
Stream size : 3.90 GiB (12%)
Title : Original
Language : English
Default : No
Forced : No

Text #1
ID : 5
Format : UTF-8
Codec ID : S_TEXT/UTF8
Codec ID/Info : UTF-8 Plain Text
Duration : 2 h 0 min
Bit rate : 106 b/s
Count of elements : 1638
Stream size : 94.5 KiB (0%)
Title : Full
Language : Russian
Default : No
Forced : No

Text #2
ID : 6
Format : UTF-8
Codec ID : S_TEXT/UTF8
Codec ID/Info : UTF-8 Plain Text
Duration : 1 h 55 min
Bit rate : 75 b/s
Count of elements : 2078
Stream size : 63.3 KiB (0%)
Title : Full
Language : English
Default : No
Forced : No

Text #3
ID : 7
Format : UTF-8
Codec ID : S_TEXT/UTF8
Codec ID/Info : UTF-8 Plain Text
Duration : 1 h 58 min
Bit rate : 81 b/s
Count of elements : 2288
Stream size : 71.3 KiB (0%)
Title : SDH
Language : English
Default : No
Forced : No

Text #4
ID : 8
Format : UTF-8
Codec ID : S_TEXT/UTF8
Codec ID/Info : UTF-8 Plain Text
Duration : 1 h 58 min
Bit rate : 111 b/s
Count of elements : 2275
Stream size : 96.6 KiB (0%)
Title : SDH Colored
Language : English
Default : No
Forced : No

Menu
00:00:00.000 : en:00:00:00.000
00:03:34.423 : en:00:03:34.423
00:07:51.304 : en:00:07:51.304
00:10:57.532 : en:00:10:57.532
00:15:13.621 : en:00:15:13.621
00:19:09.523 : en:00:19:09.523
00:22:54.915 : en:00:22:54.915
00:27:57.676 : en:00:27:57.676
00:34:32.946 : en:00:34:32.946
00:38:57.835 : en:00:38:57.835
00:44:57.278 : en:00:44:57.278
00:49:17.079 : en:00:49:17.079
00:54:23.927 : en:00:54:23.927
00:57:54.763 : en:00:57:54.763
01:06:28.276 : en:01:06:28.276
01:15:03.499 : en:01:15:03.499
01:19:37.940 : en:01:19:37.940
01:23:21.914 : en:01:23:21.914
01:30:49.819 : en:01:30:49.819
01:35:11.623 : en:01:35:11.623
01:38:59.142 : en:01:38:59.142
01:43:04.053 : en:01:43:04.053
01:48:47.062 : en:01:48:47.062
01:55:22.749 : en:01:55:22.749
Релиз от: Автор релиза:
Подпишись на меня, кликни по картинке [b]> : [/b]

Этот торрент недоступен для скачивания без регистрации, однако доступен по публичной magnet-ссылке (источники с публичных трекеров). Перед использованием ссылки прочтите, пожалуйста Пользовательское соглашение, а также как можно дольше оставайтесь на раздаче! Для того, чтобы скачать сам торрент-файл (который видит больше источников), а также для того, чтобы поблагодарить релизера, вам необходимо зарегистрироваться. Если регистрироваться лень - вы можете также попробовать скачать релиз по нашим партнерским ссылкам ниже. Кроме того, зарегистрированным пользователям не показывается всплывающая реклама при скачивании.

[underverse.me].t99151.torrent
Трекер: Зарегистрирован   [ 06.03.2018 07:47 ]  

Статус: * не проверено
Поблагодарили: пока никто не поблагодарил...
Тип торрента: публичный - доступные источники с открытых трекеров: 
Размер: 31,52 GB (занимает 7,2 DVDR, для записи нужно 8 болванок DVDR/RW)
 
 
Похожие темы
Форум Тема Автор Торрент Отв. Посл. сооб.
Зарубежное кино [DVDRip, Low-Res HDRip, и т.д.] Битва полов / Battle of the Sexes (Джонатан Дэйтон / Jonathan Dayton, Валери Фэрис / Valerie Faris) [2017 г., драма, комедия, биография, спорт, BDRip] MVO 90ytr90
43 | 5

0 | 311

8

18.02.2018 15:16

Зарубежное кино [DVDRip, Low-Res HDRip, и т.д.] Битва полов / Battle of the Sexes (Джонатан Дэйтон / Jonathan Dayton, Валери Фэрис / Valerie Faris) [2017 г., драма, комедия, биография, спорт, BDRip] MVO 90ytr90
1 | 2

0 | 195

2

18.02.2018 15:19

Зарубежное кино [DVDRip, Low-Res HDRip, и т.д.] Битва полов / Battle of the Sexes (Джонатан Дэйтон / Jonathan Dayton, Валери Фэрис / Valerie Faris) [2017 г., драма, комедия, биография, спорт, BDRip] MVO 90ytr90
11 | 2

0 | 224

1

18.02.2018 15:24

Зарубежное кино [DVDRip, Low-Res HDRip, и т.д.] Битва полов / Battle of the Sexes (Джонатан Дэйтон / Jonathan Dayton, Валери Фэрис / Valerie Faris) [2017 г., драма, комедия, биография, спорт, BDRip-AVC] MVO + Sub (Rus) 90ytr90
6 | 4

0 | 233

2

18.02.2018 15:48

Зарубежное кино [DVDRip, Low-Res HDRip, и т.д.] Битва полов / Battle of the Sexes (Джонатан Дэйтон / Jonathan Dayton, Валери Фэрис / Valerie Faris) [2017 г., драма, комедия, биография, спорт, BDRip-AVC] MVO + Original (Eng) + Sub (Rus, Eng) 90ytr90
19 | 4

0 | 296

2

18.02.2018 15:53

Зарубежное кино [HDDVDRip / BDRip / WEB-DL / HDTV 1080/720р] Битва полов / Battle of the Sexes (Джонатан Дэйтон / Jonathan Dayton, Валери Фэрис / Valerie Faris) [2017 г., драма, комедия, биография, спорт, BDRip 1080p] MVO + Original (Eng) + Sub (Rus, Eng) 90ytr90
15 | 4

0 | 247

7

18.02.2018 15:29

Зарубежное кино [HDDVDRip / BDRip / WEB-DL / HDTV 1080/720р] Битва полов / Battle of the Sexes (Джонатан Дэйтон / Jonathan Dayton, Валери Фэрис / Valerie Faris) [2017 г., драма, комедия, биография, спорт, BDRip 720p] MVO + Original (Eng) + Sub (Rus, Eng) 90ytr90
15 | 4

0 | 308

6

18.02.2018 15:43


Яндекс.Метрика powered by Sphinx


В Н И М А Н И Е
Сайт не распространяет и не хранит электронные версии произведений, а лишь бесплатно и без коммерческой выгоды (не требуя взамен платы,
SMS и т.д.) предоставляет доступ к создаваемому пользователями каталогу ссылок на торрент-файлы, которые содержат только списки хеш-сумм.
Убедительная просьба с жалобами обращаться напрямую к пользователю, разместившему торрент файл.

Вверх