Loading...
Error

Человек-паук: Возвращение домой / Spider-Man: Homecoming (Джон Уоттс / Jon Watts) [2017 г., фантастика, боевик, приключения, BDRemux 1080p] Dub + Original (Eng) + Sub (Rus, Eng)

Статистика раздачи
Размер:  25,85 GB   |    Зарегистрирован:  3 месяца 19 дней   |    Скачан:  2 раза

Полного источника не было: 24 дня

Сидов:  0  |  0 KB/s  ]   Личеров:  0  |  0 KB/s  ]

* - сиды/пиры с внешних источников

   
 
Автор Сообщение

90ytr90 

06-Мар-2018 08:07

Человек-паук: Возвращение домой
Spider-Man: Homecoming
«When one story ends, another begins»

Страна: США / Columbia Pictures, Marvel Studios Inc.
Год выпуска: 2017
Жанр: фантастика, боевик, приключения
Продолжительность: 02:13:28
Озвучивание:
  • профессиональное (полное дублирование) [лицензия]
  • оригинальная звуковая дорожка [английский]

Режиссёр: Джон Уоттс / Jon Watts

В ролях: Том Холланд (Peter Parker / Spider-Man), Роберт Дауни мл. (Tony Stark / Iron Man), Майкл Китон (Adrian Toomes / Vulture), Мариса Томей (May Parker), Джон Фавро (Happy Hogan), Джейкоб Баталон (Ned), Зендея (Michelle), Лора Хэрриер (Liz), Тони Револори (Flash), Дональд Гловер (Aaron Davis), Гвинет Пэлтроу (Pepper Potts), Боким Вудбайн (Herman Schultz / Shocker #2)


Сюжет фильма:
После исторической встречи с командой Мстителей Питер Паркер возвращается домой, стараясь зажить обычной жизнью под опекой своей тёти Мэй. Но теперь за Питером приглядывает ещё кое-что… Тони Старк видел Человека-Паука в деле и должен стать его наставником. Когда новый злодей Стервятник угрожает уничтожить всё, что дорого Питеру, приходит время доказать всем, что такое настоящий супергерой.

  • Дата мировой премьеры: 28 июня 2017
  • Дата российской премьеры: 6 июля 2017, «WDSSPR» 3D
             
Качество видео: BDRemux 1080p
Формат: MKV
Видео: AVC, 1920x1080 (16:9), 24.9 Mbps, 23.976 (24000/1001) fps, 0.502 bit/pixel
Аудио #1: AC3, 448 kbps, 6 ch, 48 kHz, Dub [лицензия]
Аудио #2: DTS-HD MA, 2342 kbps/1509 kbps, 6 ch, 48 kHz, Original [English]
Субтитры: Russian (forced.iTunes, full.iTunes), English (forced.iTunes, full.iTunes)
Навигация по главам: есть (16)

Сборка: СелезеньS
General
Unique ID : 191570542908184385544690711651357555318 (0x901F24FE469408218F12B4E7F883FA76)
Complete name : G:Spider.Man.Homecoming.2017.Lic.BDREMUX.1080p.ExKinoRay.mkv
Format : Matroska
Format version : Version 4 / Version 2
File size : 25.9 GiB
Duration : 2 h 13 min
Overall bit rate mode : Variable
Overall bit rate : 27.7 Mb/s
Encoded date : UTC 2017-10-28 08:00:22
Writing application : mkvmerge v17.0.0 ('Be Ur Friend') 64-bit
Writing library : libebml v1.3.5 + libmatroska v1.4.8

Video
ID : 1
Format : AVC
Format/Info : Advanced Video Codec
Format profile : High@L4.1
Format settings : CABAC / 2 Ref Frames
Format settings, CABAC : Yes
Format settings, RefFrames : 2 frames
Format settings, GOP : M=1, N=10
Codec ID : V_MPEG4/ISO/AVC
Duration : 2 h 13 min
Bit rate mode : Variable
Bit rate : 24.9 Mb/s
Width : 1 920 pixels
Height : 1 080 pixels
Display aspect ratio : 16:9
Frame rate mode : Constant
Frame rate : 23.976 (24000/1001) FPS
Color space : YUV
Chroma subsampling : 4:2:0
Bit depth : 8 bits
Scan type : Progressive
Bits/(Pixel*Frame) : 0.502
Stream size : 23.2 GiB (90%)
Language : English
Default : Yes
Forced : No

Audio #1
ID : 2
Format : AC-3
Format/Info : Audio Coding 3
Format settings, Endianness : Big
Codec ID : A_AC3
Duration : 2 h 13 min
Bit rate mode : Constant
Bit rate : 448 kb/s
Channel(s) : 6 channels
Channel positions : Front: L C R, Side: L R, LFE
Sampling rate : 48.0 kHz
Frame rate : 31.250 FPS (1536 SPF)
Bit depth : 16 bits
Compression mode : Lossy
Stream size : 428 MiB (2%)
Title : Dub
Language : Russian
Service kind : Complete Main
Default : Yes
Forced : No

Audio #2
ID : 3
Format : DTS
Format/Info : Digital Theater Systems
Format profile : MA / Core
Mode : 16
Format settings, Endianness : Big
Codec ID : A_DTS
Duration : 2 h 13 min
Bit rate mode : Variable / Constant
Bit rate : 2 342 kb/s / 1 509 kb/s
Channel(s) : 6 channels
Channel positions : Front: L C R, Side: L R, LFE
Sampling rate : 48.0 kHz
Frame rate : 93.750 FPS (512 SPF)
Bit depth : 16 bits
Compression mode : Lossless / Lossy
Stream size : 2.18 GiB (8%)
Title : Original
Language : English
Default : No
Forced : No

Text #1
ID : 4
Format : UTF-8
Codec ID : S_TEXT/UTF8
Codec ID/Info : UTF-8 Plain Text
Duration : 2 h 9 min
Bit rate : 0 b/s
Count of elements : 17
Stream size : 825 Bytes (0%)
Title : Forced [iTunes]
Language : Russian
Default : Yes
Forced : No

Text #2
ID : 5
Format : UTF-8
Codec ID : S_TEXT/UTF8
Codec ID/Info : UTF-8 Plain Text
Duration : 2 h 12 min
Bit rate : 104 b/s
Count of elements : 1825
Stream size : 102 KiB (0%)
Title : Full [iTunes]
Language : Russian
Default : No
Forced : No

Text #3
ID : 6
Format : UTF-8
Codec ID : S_TEXT/UTF8
Codec ID/Info : UTF-8 Plain Text
Duration : 5 s 130 ms
Bit rate : 79 b/s
Count of elements : 2
Stream size : 51.0 Bytes (0%)
Title : Forced [iTunes]
Language : English
Default : No
Forced : No

Text #4
ID : 7
Format : UTF-8
Codec ID : S_TEXT/UTF8
Codec ID/Info : UTF-8 Plain Text
Duration : 2 h 12 min
Bit rate : 64 b/s
Count of elements : 1790
Stream size : 62.3 KiB (0%)
Title : Full [iTunes]
Language : English
Default : No
Forced : No

Menu
00:00:00.000 : en:1
00:05:33.083 : en:2
00:14:23.279 : en:3
00:20:49.999 : en:4
00:26:18.243 : en:5
00:36:26.976 : en:6
00:46:02.926 : en:7
00:54:39.192 : en:8
01:05:09.280 : en:9
01:12:02.276 : en:10
01:20:19.189 : en:11
01:29:40.542 : en:12
01:36:55.894 : en:13
01:44:43.152 : en:14
01:50:30.249 : en:15
01:57:52.566 : en:16


pic pic pic
Для увеличения картинки щелкните мышкой по превью



pic pic pic pic pic pic

Этот торрент недоступен для скачивания без регистрации, однако доступен по публичной magnet-ссылке (источники с публичных трекеров). Перед использованием ссылки прочтите, пожалуйста Пользовательское соглашение, а также как можно дольше оставайтесь на раздаче! Для того, чтобы скачать сам торрент-файл (который видит больше источников), а также для того, чтобы поблагодарить релизера, вам необходимо зарегистрироваться. Если регистрироваться лень - вы можете также попробовать скачать релиз по нашим партнерским ссылкам ниже. Кроме того, зарегистрированным пользователям не показывается всплывающая реклама при скачивании.

[underverse.me].t99153.torrent
Трекер: Зарегистрирован   [ 06.03.2018 08:07 ]  

Статус: проверено (by 90ytr90 at 07.03.2018 17:58)
Поблагодарили: пока никто не поблагодарил...
Тип торрента: публичный - доступные источники с открытых трекеров: 
Размер: 25,85 GB (занимает 5,91 DVDR, для записи нужно 6 болванок DVDR/RW)
 
 
Похожие темы
Форум Тема Автор Торрент Отв. Посл. сооб.
Зарубежное кино [DVDRip, Low-Res HDRip, и т.д.] Человек-паук: Возвращение домой / Spider-Man: Homecoming (Джон Уоттс / Jon Watts) [2017 г., фантастика, боевик, приключения, BDRip] Dub + Sub (Rus) 90ytr90
69 | 0

0 | 792

21

16.11.2017 19:26

Зарубежное кино [DVDRip, Low-Res HDRip, и т.д.] Человек-паук: Возвращение домой / Spider-Man: Homecoming (Джон Уоттс / Jon Watts) [2017 г., фантастика, боевик, приключения, BDRip] Dub 90ytr90
50 | 3

0 | 554

11

16.11.2017 19:32

Зарубежное кино [DVDRip, Low-Res HDRip, и т.д.] Человек-паук: Возвращение домой / Spider-Man: Homecoming (Джон Уоттс / Jon Watts) [2017 г., фантастика, боевик, приключения, BDRip-AVC] Dub + Original (Eng) + Sub (Rus, Eng) 90ytr90
93 | 5

0 | 586

12

16.11.2017 19:59

Зарубежное кино [DVDRip, Low-Res HDRip, и т.д.] Человек-паук: Возвращение домой / Spider-Man: Homecoming (Джон Уоттс / Jon Watts) [2017 г., фантастика, боевик, приключения, BDRip-AVC] Dub + Sub (Rus) 90ytr90
69 | 7

0 | 601

17

16.11.2017 20:04

T Зарубежное кино [HDDVDRip / BDRip / WEB-DL / HDTV 1080/720р] Человек-паук: Возвращение домой / Spider-Man: Homecoming (Джон Уоттс) [2017 г., фантастика, боевик, приключения, WEB-DL 1080p] Dub (iTunes) + Original + Sub makkol
5 | 4

1 | 762

20

27.09.2017 22:14

T Зарубежное кино [HDDVDRip / BDRip / WEB-DL / HDTV 1080/720р] Человек-паук: Возвращение домой / Spider-Man: Homecoming (Джон Уоттс) [2017 г., фантастика, боевик, приключения, WEB-DL 1080p] Rus (Dub iTunes) + Ukr (Dub) + Original + Sub makkol
39 | 4

0 | 1182

65

27.09.2017 22:47

Зарубежное кино [HDDVDRip / BDRip / WEB-DL / HDTV 1080/720р] Человек-паук: Возвращение домой / Spider-Man: Homecoming (Джон Уоттс / Jon Watts) [2017 г., фантастика, боевик, приключения, BDRip 720p] Dub + Sub (Rus) 90ytr90
33 | 8

0 | 500

2

16.11.2017 19:37

Зарубежное кино [HDDVDRip / BDRip / WEB-DL / HDTV 1080/720р] Человек-паук: Возвращение домой / Spider-Man: Homecoming (Джон Уоттс / Jon Watts) [2017 г., фантастика, боевик, приключения, BDRip 720p] Dub + Original (Eng) + Sub (Rus, Eng) 90ytr90
55 | 5

0 | 556

7

16.11.2017 19:42

Зарубежное кино [HDDVDRip / BDRip / WEB-DL / HDTV 1080/720р] Человек-паук: Возвращение домой / Spider-Man: Homecoming (Джон Уоттс / Jon Watts) [2017 г., фантастика, боевик, приключения, BDRip 1080p] Dub + Sub (Rus) 90ytr90
285 | 12

0 | 718

19

16.11.2017 19:49

Зарубежное кино [HDDVDRip / BDRip / WEB-DL / HDTV 1080/720р] Человек-паук: Возвращение домой / Spider-Man: Homecoming (Джон Уоттс / Jon Watts) [2017 г., фантастика, боевик, приключения, BDRip 1080p] Dub + Original (Eng) + Sub (Rus, Eng) 90ytr90
30 | 1

0 | 625

24

16.11.2017 19:55


Яндекс.Метрика powered by Sphinx


В Н И М А Н И Е
Сайт не распространяет и не хранит электронные версии произведений, а лишь бесплатно и без коммерческой выгоды (не требуя взамен платы,
SMS и т.д.) предоставляет доступ к создаваемому пользователями каталогу ссылок на торрент-файлы, которые содержат только списки хеш-сумм.
Убедительная просьба с жалобами обращаться напрямую к пользователю, разместившему торрент файл.

Вверх