Loading...
Error

Лига справедливости / Justice League (Зак Снайдер / Zack Snyder) [2017 г., фантастика, фэнтези, боевик, приключения, BDRemux 1080p] Dub (Rus) + Dub (Ukr.iTunes) + Original (Eng) + Sub (Rus, Ukr, Eng)

Статистика раздачи
Размер:  22,55 GB   |    Зарегистрирован:  3 месяца 15 дней   |    Скачан:  8 раз

Полного источника не было: 7 дней

Сидов:  0  |  0 KB/s  ]   Личеров:  0  |  0 KB/s  ]

* - сиды/пиры с внешних источников

   
 
Автор Сообщение

90ytr90 

06-Мар-2018 17:58

Лига справедливости / Justice League
«Нельзя спасти мир в одиночку»

Страна: США
Год выпуска: 2017
Жанр: фантастика, фэнтези, боевик, приключения
Продолжительность: 02:00:02
Озвучивание:
  • профессиональное (полное дублирование) [русский (лицензия)]
  • профессиональное (полное дублирование) [украинский (iTunes)]
  • оригинальная звуковая дорожка [английский]

Режиссёр: Зак Снайдер / Zack Snyder

В ролях: Бен Аффлек (Batman / Bruce Wayne), Генри Кавилл (Superman / Clark Kent), Эми Адамс (Lois Lane), Галь Гадот (Wonder Woman / Diana Prince), Эзра Миллер (The Flash / Barry Allen), Джейсон Момоа (Aquaman / Arthur Curry), Рэй Фишер (Cyborg / Victor Stone), Джереми Айронс (Alfred), Дайан Лэйн (Martha Kent), Конни Нильсен (Queen Hippolyta), Дж.К. Симмонс (Commissioner Gordon), Киран Хайндс (Steppenwolf, озвучка)


Сюжет фильма:
Брюс Уэйн, вдохновлённый самопожертвованием Супермена, вновь обретает веру в человечество. Он заручается поддержкой новой союзницы, Дианы Принс, чтобы сразиться с еще более могущественным противником. Бэтмен и Чудо-Женщина быстро набирают команду сверхлюдей для борьбы с пробудившейся угрозой. Но несмотря на уникальный состав отряда супергероев — Бэтмен, Чудо-Женщина, Аквамэн, Киборг и Флэш, — быть может, спасать планету от вторжения катастрофических масштабов уже слишком поздно...

  • Дата мировой премьеры: 13 ноября 2017
  • Дата российской премьеры: 16 ноября 2017, «Каро-Премьер» 3D
  • Цифровой релиз: 14 февраля 2018, «Warner Bros»
             
Качество видео: BDRemux 1080p
Формат: MKV
Видео: AVC, 1920x1080 (16:9), 21.8 Mbps, 23.976 (24000/1001) fps, 0.439 bit/pixel
Аудио #1: AC3, 448 kbps, 6 ch, 48 kHz, Dub [Russian.лицензия]
Аудио #2: AC3, 224 kbps, 2 ch, 48 kHz, Dub [Ukrainian.iTunes]
Аудио #3: TrueHD, 3879 kbps, 8 ch, 48 kHz, Original [English]
Аудио #4: AC3, 448 kbps, 6 ch, 48 kHz, Original [English]
Субтитры: Russian (forced, full), Ukrainian (forced), English (full)
Навигация по главам: есть (12)

Сборка: СелезеньS
General
Unique ID : 95651466344526933445324525047176057516 (0x47F5CD65385D19852CD5DA1D019952AC)
Complete name : C:\Video111Justice.League.2017.Lic.BDREMUX.1080p.ExKinoRay.mkv
Format : Matroska
Format version : Version 4 / Version 2
File size : 22.5 GiB
Duration : 2 h 0 min
Overall bit rate mode : Variable
Overall bit rate : 26.9 Mb/s
Movie name : Justice League 2017 from ExKinoRay
Encoded date : UTC 2018-03-06 17:07:17
Writing application : mkvmerge v21.0.0 ('Tardigrades Will Inherit The Earth') 64-bit
Writing library : libebml v1.3.5 + libmatroska v1.4.8

Video
ID : 1
Format : AVC
Format/Info : Advanced Video Codec
Format profile : High@L4.1
Format settings : CABAC / 4 Ref Frames
Format settings, CABAC : Yes
Format settings, ReFrames : 4 frames
Codec ID : V_MPEG4/ISO/AVC
Duration : 2 h 0 min
Bit rate mode : Variable
Bit rate : 21.8 Mb/s
Maximum bit rate : 28.0 Mb/s
Width : 1 920 pixels
Height : 1 080 pixels
Display aspect ratio : 16:9
Frame rate mode : Constant
Frame rate : 23.976 (24000/1001) FPS
Color space : YUV
Chroma subsampling : 4:2:0
Bit depth : 8 bits
Scan type : Progressive
Bits/(Pixel*Frame) : 0.439
Stream size : 18.3 GiB (81%)
Language : English
Default : Yes
Forced : No

Audio #1
ID : 2
Format : AC-3
Format/Info : Audio Coding 3
Codec ID : A_AC3
Duration : 2 h 0 min
Bit rate mode : Constant
Bit rate : 448 kb/s
Channel(s) : 6 channels
Channel positions : Front: L C R, Side: L R, LFE
Sampling rate : 48.0 kHz
Frame rate : 31.250 FPS (1536 SPF)
Bit depth : 16 bits
Compression mode : Lossy
Stream size : 385 MiB (2%)
Title : Dub [License]
Language : Russian
Service kind : Complete Main
Default : Yes
Forced : No

Audio #2
ID : 3
Format : AC-3
Format/Info : Audio Coding 3
Codec ID : A_AC3
Duration : 2 h 0 min
Bit rate mode : Constant
Bit rate : 224 kb/s
Channel(s) : 2 channels
Channel positions : Front: L R
Sampling rate : 48.0 kHz
Frame rate : 31.250 FPS (1536 SPF)
Bit depth : 16 bits
Compression mode : Lossy
Stream size : 192 MiB (1%)
Title : iTunes
Language : Ukrainian
Service kind : Complete Main
Default : No
Forced : No

Audio #3
ID : 4
Format : TrueHD
Format profile : TrueHD+Atmos / TrueHD
Codec ID : A_TRUEHD
Duration : 2 h 0 min
Bit rate mode : Variable
Bit rate : 3 879 kb/s
Maximum bit rate : 6 366 kb/s
Channel(s) : Object Based / 8 channels
Channel positions : Object Based / Front: L C R, Side: L R, Back: L R, LFE
Sampling rate : / 48.0 kHz
Frame rate : 1 200.000 FPS (40 SPF)
Compression mode : Lossless
Stream size : 3.25 GiB (14%)
Title : Original
Language : English
Default : No
Forced : No

Audio #4
ID : 5
Format : AC-3
Format/Info : Audio Coding 3
Codec ID : A_AC3
Duration : 2 h 0 min
Bit rate mode : Constant
Bit rate : 448 kb/s
Channel(s) : 6 channels
Channel positions : Front: L C R, Side: L R, LFE
Sampling rate : 48.0 kHz
Frame rate : 31.250 FPS (1536 SPF)
Bit depth : 16 bits
Compression mode : Lossy
Stream size : 385 MiB (2%)
Language : English
Service kind : Complete Main
Default : No
Forced : No

Text #1
ID : 6
Format : UTF-8
Codec ID : S_TEXT/UTF8
Codec ID/Info : UTF-8 Plain Text
Duration : 1 h 57 min
Bit rate : 0 b/s
Count of elements : 24
Stream size : 818 Bytes (0%)
Title : Forced
Language : Russian
Default : Yes
Forced : Yes

Text #2
ID : 7
Format : UTF-8
Codec ID : S_TEXT/UTF8
Codec ID/Info : UTF-8 Plain Text
Duration : 1 h 58 min
Bit rate : 69 b/s
Count of elements : 1024
Stream size : 60.3 KiB (0%)
Title : full
Language : Russian
Default : No
Forced : No

Text #3
ID : 8
Format : UTF-8
Codec ID : S_TEXT/UTF8
Codec ID/Info : UTF-8 Plain Text
Duration : 1 h 38 min
Bit rate : 1 b/s
Count of elements : 31
Stream size : 1.21 KiB (0%)
Title : forced
Language : Ukrainian
Default : No
Forced : No

Text #4
ID : 9
Format : UTF-8
Codec ID : S_TEXT/UTF8
Codec ID/Info : UTF-8 Plain Text
Duration : 1 h 49 min
Bit rate : 43 b/s
Count of elements : 1279
Stream size : 35.3 KiB (0%)
Title : full
Language : English
Default : No
Forced : No

Menu
00:00:00.000 : en:Chapter 1
00:10:56.155 : en:Chapter 2
00:19:16.488 : en:Chapter 3
00:30:41.673 : en:Chapter 4
00:40:19.667 : en:Chapter 5
00:49:56.535 : en:Chapter 6
01:01:26.891 : en:Chapter 7
01:09:41.552 : en:Chapter 8
01:19:18.587 : en:Chapter 9
01:30:34.512 : en:Chapter 10
01:40:33.569 : en:Chapter 11
01:48:43.058 : en:Chapter 12

Этот торрент недоступен для скачивания без регистрации, однако доступен по публичной magnet-ссылке (источники с публичных трекеров). Перед использованием ссылки прочтите, пожалуйста Пользовательское соглашение, а также как можно дольше оставайтесь на раздаче! Для того, чтобы скачать сам торрент-файл (который видит больше источников), а также для того, чтобы поблагодарить релизера, вам необходимо зарегистрироваться. Если регистрироваться лень - вы можете также попробовать скачать релиз по нашим партнерским ссылкам ниже. Кроме того, зарегистрированным пользователям не показывается всплывающая реклама при скачивании.

[underverse.me].t99209.torrent
Трекер: Зарегистрирован   [ 06.03.2018 17:58 ]  

Статус: проверено (by 90ytr90 at 07.03.2018 10:14)
Поблагодарили: пока никто не поблагодарил...
Тип торрента: публичный - доступные источники с открытых трекеров: 
Размер: 22,55 GB (занимает 5,15 DVDR, для записи нужно 6 болванок DVDR/RW)
 
 
Похожие темы
Форум Тема Автор Торрент Отв. Посл. сооб.
T Зарубежное кино [DVDRip, Low-Res HDRip, и т.д.] Лига справедливости / Justice League (Зак Снайдер) [2017 г., фантастика, фэнтези, боевик, приключения, HDTVRip] Dub (звук с TS) makkol
23 | 0

0 | 1706

50

21.12.2017 10:35

T Зарубежное кино [DVDRip, Low-Res HDRip, и т.д.] Лига справедливости / Justice League (Зак Снайдер) [2017 г., фантастика, фэнтези, боевик, приключения, HDTVRip] MVO (Синема УС) makkol
34 | 3

0 | 1270

59

23.12.2017 21:18

T Зарубежное кино [DVDRip, Low-Res HDRip, и т.д.] Лига справедливости / Justice League (Зак Снайдер) [2017 г., фантастика, фэнтези, боевик, приключения, WEB-DLRip] Dub (Line) makkol
25 | 0

0 | 530

24

07.02.2018 21:19

T Зарубежное кино [DVDRip, Low-Res HDRip, и т.д.] Лига справедливости / Justice League (Зак Снайдер) [2017 г., фантастика, фэнтези, боевик, приключения, WEB-DLRip] Dub (Line) makkol
17 | 0

0 | 666

20

07.02.2018 21:26

T Зарубежное кино [DVDRip, Low-Res HDRip, и т.д.] Лига справедливости / Justice League (Зак Снайдер) [2017 г., фантастика, фэнтези, боевик, приключения, WEB-DLRip] Dub (iTunes) makkol
65 | 2

0 | 797

28

13.02.2018 21:52

T Зарубежное кино [DVDRip, Low-Res HDRip, и т.д.] Лига справедливости / Justice League (Зак Снайдер) [2017 г., фантастика, фэнтези, боевик, приключения, WEB-DLRip-AVC] Dub (iTunes) + Original + Sub makkol
19 | 2

0 | 621

27

14.02.2018 13:30

T Зарубежное кино [DVDRip, Low-Res HDRip, и т.д.] Лига справедливости / Justice League (Зак Снайдер / Zack Snyder) [2017 г., фантастика, фэнтези, боевик, приключения, супергерой, HDRip] Dub (iTunes) + Sub (Rus) 90ytr90
29 | 3

0 | 494

11

25.02.2018 17:58

T Зарубежное кино [DVDRip, Low-Res HDRip, и т.д.] Лига справедливости / Justice League (Зак Снайдер / Zack Snyder) [2017 г., фантастика, фэнтези, боевик, приключения, BDRip-AVC] Dub (iTunes) + Original (Eng) + Sub (Rus, Eng) + hardsub (Rus) 90ytr90
3 | 0

0 | 288

9

03.03.2018 06:48

Зарубежное кино [DVDRip, Low-Res HDRip, и т.д.] Лига справедливости / Justice League (Зак Снайдер / Zack Snyder) [2017 г., фантастика, фэнтези, боевик, приключения, супергерой, BDRip] Dub + Sub (Rus) 90ytr90
805 | 21

0 | 2898

24

07.03.2018 10:41

Зарубежное кино [DVDRip, Low-Res HDRip, и т.д.] Лига справедливости / Justice League (Зак Снайдер / Zack Snyder) [2017 г., фантастика, фэнтези, боевик, приключения, супергерой, BDRip-AVC] Dub + Original (Eng) + Sub (Rus, Eng) + hardsub (Rus) 90ytr90
83 | 10

0 | 526

4

07.03.2018 11:12


Яндекс.Метрика powered by Sphinx


В Н И М А Н И Е
Сайт не распространяет и не хранит электронные версии произведений, а лишь бесплатно и без коммерческой выгоды (не требуя взамен платы,
SMS и т.д.) предоставляет доступ к создаваемому пользователями каталогу ссылок на торрент-файлы, которые содержат только списки хеш-сумм.
Убедительная просьба с жалобами обращаться напрямую к пользователю, разместившему торрент файл.

Вверх