Loading...
Error

Валериан и город тысячи планет / Valerian and the City of a Thousand Planets (Люк Бессон) [2017 г., фантастика, фэнтези, боевик, приключения, BDRemux 1080p] [NOR Transfer] Dub (Rus) + 5xAVO (Живов, Сербин, Гаврилов, Володарский, Смирнов) + Dub (Ukr)

Статистика раздачи
Размер:  61,9 GB   |    Зарегистрирован:  3 месяца 10 дней   |    Скачан:  6 раз

Полного источника не было: 19 часов

Сидов:  0  |  0 KB/s  ]   Личеров:  0  |  0 KB/s  ]

* - сиды/пиры с внешних источников

   
 
Автор Сообщение

90ytr90 

09-Мар-2018 10:19

Валериан и город тысячи планет / Valerian and the City of a Thousand Planets
«From the visionary director of The Fifth Element and Lucy»

Страна: Франция, Китай, Бельгия, Германия, ОАЭ, США, Великобритания, Канада
Год выпуска: 2017
Жанр: фантастика, фэнтези, боевик, приключения
Продолжительность: 02:16:39
Озвучивание:
  • профессиональное (полное дублирование) [русский]
  • профессиональное (полное дублирование) [русский]
  • профессиональное (полное дублирование) [русский]
  • авторское (одноголосое закадровое) [Живов]
  • авторское (одноголосое закадровое) [Сербин]
  • авторское (одноголосое закадровое) [Гаврилов]
  • авторское (одноголосое закадровое) [Володарский]
  • авторское (одноголосое закадровое) [Смирнов]
  • профессиональное (полное дублирование) [украинский]
  • оригинальная звуковая дорожка [английский]

Режиссёр: Люк Бессон / Luc Besson

В ролях: Дэйн ДеХаан (Major Valerian), Кара Делевинь (Sergeant Laureline), Клайв Оуэн (Commander Arun Filitt), Рианна (Bubble), Итан Хоук (Jolly the Pimp), Херби Хэнкок (Defence Minister), Крис У (Sergeant Neza), Сэм Спруэлл (General Okto-Bar), Ален Шаба (Bob the Pirate), Рутгер Хауэр (President of the World State Federation), Питер Хадсон (Captain Crowford), Ксавье Джанноли (Captain Norton)


Сюжет фильма:
2700 год. Валериан и Лорелин - космические спецагенты, которые по долгу службы впутались в подозрительное дело и стали невольными участниками то ли межгалактического заговора, то ли аферы причудливых поселенцев планеты Альфа, прибывших туда из различных миров со всех уголков галактик.

  • Дата мировой премьеры: 17 июля 2017
  • Дата российской премьеры: 10 августа 2017, «Наше Кино», «A-One Films»
             
Качество видео: BDRemux 1080p [NOR Transfer]
Формат: MKV
Видео: AVC, 1920x1080 (16:9), 34.9 Mbps, 23.976 (24000/1001) fps, 0.703 bit/pixel
Аудио #01: DTS-HD MA, 2396 kbps/1509 kbps, 6 ch, 48 kHz, Dub [Russian]
Аудио #02: DTS-HD MA, 3936 kbps/1509 kbps, 6 ch, 48 kHz, Dub [Russian]
Аудио #03: AC3, 640 kbps, 6 ch, 48 kHz, Dub [Russian]
Аудио #04: DTS-HD MA, 5033 kbps/1509 kbps, 6 ch, 48 kHz, AVO [Живов]
Аудио #05: DTS-HD MA, 3990 kbps/1509 kbps, 6 ch, 48 kHz, AVO [Сербин]
Аудио #06: DTS-HD MA, 3991 kbps/1509 kbps, 6 ch, 48 kHz, AVO [Гаврилов]
Аудио #07: DTS-HD MA, 5016 kbps/1509 kbps, 6 ch, 48 kHz, AVO [Володарский]
Аудио #08: AC3, 192 kbps, 2 ch, 48 kHz, AVO [Смирнов]
Аудио #09: AC3, 192 kbps, 2 ch, 48 kHz, Dub [Ukrainian]
Аудио #10: TrueHD, 4431 kbps, 8 ch, 48 kHz, Original [English]
Субтитры:Русские (forced, full), украинские (forced), английские (forced, full, SDH, SDH-Colored)
Навигация по главам: есть (16)



Общее
Уникальный идентификатор : 215959994527739549798474944992590480174 (0xA27861CC65141AFCA99E7D1A650CC32E)
Полное имя : D:\РЕМУКС!!!!!\Валериан и город тысячи планет.BDRemux.mkv
Формат : Matroska
Версия формата : Version 4 / Version 2
Размер файла : 61,9 Гбайт
Продолжительность : 2 ч. 16 м.
Режим общего битрейта : Переменный
Общий поток : 64,8 Мбит/сек
Название фильма : Валериан и город тысячи планет.BDRemux.thx:SPOMOPS
Дата кодирования : UTC 2018-03-09 03:38:21
Программа кодирования : mkvmerge v8.3.0 ('Over the Horizon') 64bit
Библиотека кодирования : libebml v1.3.1 + libmatroska v1.4.2

Видео
Идентификатор : 1
Формат : AVC
Формат/Информация : Advanced Video Codec
Профиль формата : High@L4.1
Настройки формата : CABAC / 3 Ref Frames
Параметр CABAC формата : Да
Параметр RefFrames формата : 3 кадра
Идентификатор кодека : V_MPEG4/ISO/AVC
Продолжительность : 2 ч. 16 м.
Вид битрейта : Переменный
Битрейт : 34,9 Мбит/сек
Номинальный битрейт : 38,0 Мбит/сек
Максимальный битрейт : 38,0 Мбит/сек
Ширина : 1920 пикселей
Высота : 1080 пикселей
Соотношение сторон : 16:9
Режим частоты кадров : Постоянный
Частота кадров : 23,976 (24000/1001) кадра/сек
Цветовое пространство : YUV
Субдискретизация насыщенности : 4:2:0
Битовая глубина : 8 бит
Тип развёртки : Прогрессивная
Бит/(Пиксели*Кадры) : 0.703
Размер потока : 33,4 Гбайт (54%)
Заголовок : MPEG-4 AVC Video 34941 kbps 1080p / 23.976 fps
Библиотека кодирования : x264 core 152 r2851 ba24899
Настройки программы : cabac=1 / ref=4 / deblock=1:-1:-1 / analyse=0x3:0x133 / me=umh / subme=10 / psy=1 / psy_rd=1.00:0.15 / mixed_ref=1 / me_range=24 / chroma_me=1 / trellis=2 / 8x8dct=1 / cqm=0 / deadzone=21,11 / fast_pskip=1 / chroma_qp_offset=-3 / threads=34 / lookahead_threads=2 / sliced_threads=0 / slices=4 / nr=0 / decimate=1 / interlaced=0 / bluray_compat=1 / constrained_intra=0 / bframes=3 / b_pyramid=1 / b_adapt=2 / b_bias=0 / direct=3 / weightb=1 / open_gop=1 / weightp=1 / keyint=24 / keyint_min=1 / scenecut=40 / intra_refresh=0 / rc_lookahead=24 / rc=2pass / mbtree=1 / bitrate=38000 / ratetol=1.0 / qcomp=0.60 / qpmin=0 / qpmax=69 / qpstep=4 / cplxblur=20.0 / qblur=0.5 / vbv_maxrate=38000 / vbv_bufsize=30000 / nal_hrd=vbr / filler=0 / ip_ratio=1.40 / aq=1:1.00
Язык : English
Default : Да
Forced : Нет
Цветовой диапазон : Limited
Основные цвета : BT.709
Характеристики трансфера : BT.709
Коэффициенты матрицы : BT.709

Аудио #1
Идентификатор : 2
Формат : DTS
Формат/Информация : Digital Theater Systems
Профиль формата : MA / Core
Идентификатор кодека : A_DTS
Продолжительность : 2 ч. 16 м.
Вид битрейта : Переменный / Постоянный
Битрейт : 2396 Кбит/сек / 1509 Кбит/сек
Каналы : 6 каналов
Расположение каналов : Front: L C R, Side: L R, LFE
Частота : 48,0 КГц
Частота кадров : 93,750 кадра/сек (512 SPF)
Битовая глубина : 24 бит
Метод сжатия : Без потерь / Lossy
Размер потока : 2,29 Гбайт (4%)
Заголовок : Русский DTS-HD MA - Дубляж
Язык : Russian
Default : Да
Forced : Нет

Аудио #2
Идентификатор : 3
Формат : DTS
Формат/Информация : Digital Theater Systems
Профиль формата : MA / Core
Идентификатор кодека : A_DTS
Продолжительность : 2 ч. 16 м.
Вид битрейта : Переменный / Постоянный
Битрейт : 3936 Кбит/сек / 1509 Кбит/сек
Каналы : 8 каналов / 6 каналов
Расположение каналов : Front: L C R, Side: L R, Back: L R, LFE / Front: L C R, Side: L R, LFE
Частота : 48,0 КГц
Частота кадров : 93,750 кадра/сек (512 SPF)
Битовая глубина : 24 бит
Метод сжатия : Без потерь / Lossy
Размер потока : 3,76 Гбайт (6%)
Заголовок : Русский DTS-HD MA - Дубляж
Язык : Russian
Default : Нет
Forced : Нет

Аудио #3
Идентификатор : 4
Формат : AC-3
Формат/Информация : Audio Coding 3
Идентификатор кодека : A_AC3
Продолжительность : 2 ч. 16 м.
Вид битрейта : Постоянный
Битрейт : 640 Кбит/сек
Каналы : 6 каналов
Расположение каналов : Front: L C R, Side: L R, LFE
Частота : 48,0 КГц
Частота кадров : 31,250 кадров/сек (1536 SPF)
Битовая глубина : 16 бит
Метод сжатия : С потерями
Размер потока : 626 Мбайт (1%)
Заголовок : Русский ас3 - Дубляж
Язык : Russian
ServiceKind/String : Complete Main
Default : Нет
Forced : Нет

Аудио #4
Идентификатор : 5
Формат : DTS
Формат/Информация : Digital Theater Systems
Профиль формата : MA / Core
Идентификатор кодека : A_DTS
Продолжительность : 2 ч. 16 м.
Вид битрейта : Переменный / Постоянный
Битрейт : 5033 Кбит/сек / 1509 Кбит/сек
Каналы : 8 каналов / 6 каналов
Расположение каналов : Front: L C R, Side: L R, Back: L R, LFE / Front: L C R, Side: L R, LFE
Частота : 48,0 КГц
Частота кадров : 93,750 кадра/сек (512 SPF)
Битовая глубина : 24 бит
Метод сжатия : Без потерь / Lossy
Задержка видео : 3 мс.
Размер потока : 4,81 Гбайт (8%)
Заголовок : Русский DTS-HD MA - АП (Живов)
Язык : Russian
Default : Нет
Forced : Нет

Аудио #5
Идентификатор : 6
Формат : DTS
Формат/Информация : Digital Theater Systems
Профиль формата : MA / Core
Идентификатор кодека : A_DTS
Продолжительность : 2 ч. 16 м.
Вид битрейта : Переменный / Постоянный
Битрейт : 3990 Кбит/сек / 1509 Кбит/сек
Каналы : 6 каналов
Расположение каналов : Front: L C R, Side: L R, LFE
Частота : 48,0 КГц
Частота кадров : 93,750 кадра/сек (512 SPF)
Битовая глубина : 24 бит
Метод сжатия : Без потерь / Lossy
Размер потока : 3,81 Гбайт (6%)
Заголовок : Русский DTS-HD MA - АП (Сербин)
Язык : Russian
Default : Нет
Forced : Нет

Аудио #6
Идентификатор : 7
Формат : DTS
Формат/Информация : Digital Theater Systems
Профиль формата : MA / Core
Идентификатор кодека : A_DTS
Продолжительность : 2 ч. 16 м.
Вид битрейта : Переменный / Постоянный
Битрейт : 3991 Кбит/сек / 1509 Кбит/сек
Каналы : 6 каналов
Расположение каналов : Front: L C R, Side: L R, LFE
Частота : 48,0 КГц
Частота кадров : 93,750 кадра/сек (512 SPF)
Битовая глубина : 24 бит
Метод сжатия : Без потерь / Lossy
Размер потока : 3,81 Гбайт (6%)
Заголовок : Русский DTS-HD MA - АП (Гаврилов)
Язык : Russian
Default : Нет
Forced : Нет

Аудио #7
Идентификатор : 8
Формат : DTS
Формат/Информация : Digital Theater Systems
Профиль формата : MA / Core
Идентификатор кодека : A_DTS
Продолжительность : 2 ч. 16 м.
Вид битрейта : Переменный / Постоянный
Битрейт : 5016 Кбит/сек / 1509 Кбит/сек
Каналы : 8 каналов / 6 каналов
Расположение каналов : Front: L C R, Side: L R, Back: L R, LFE / Front: L C R, Side: L R, LFE
Частота : 48,0 КГц
Частота кадров : 93,750 кадра/сек (512 SPF)
Битовая глубина : 24 бит
Метод сжатия : Без потерь / Lossy
Задержка видео : 3 мс.
Размер потока : 4,79 Гбайт (8%)
Заголовок : Русский DTS-HD MA - АП (Володарский)
Язык : Russian
Default : Нет
Forced : Нет

Аудио #8
Идентификатор : 9
Формат : AC-3
Формат/Информация : Audio Coding 3
Идентификатор кодека : A_AC3
Продолжительность : 2 ч. 16 м.
Вид битрейта : Постоянный
Битрейт : 192 Кбит/сек
Каналы : 2 канала
Расположение каналов : Front: L R
Частота : 48,0 КГц
Частота кадров : 31,250 кадров/сек (1536 SPF)
Битовая глубина : 16 бит
Метод сжатия : С потерями
Размер потока : 188 Мбайт (0%)
Заголовок : Русский ас3 - АП (Смирнов)
Язык : Russian
ServiceKind/String : Complete Main
Default : Нет
Forced : Нет

Аудио #9
Идентификатор : 10
Формат : AC-3
Формат/Информация : Audio Coding 3
Идентификатор кодека : A_AC3
Продолжительность : 2 ч. 16 м.
Вид битрейта : Постоянный
Битрейт : 192 Кбит/сек
Каналы : 2 канала
Расположение каналов : Front: L R
Частота : 48,0 КГц
Частота кадров : 31,250 кадров/сек (1536 SPF)
Битовая глубина : 16 бит
Метод сжатия : С потерями
Размер потока : 188 Мбайт (0%)
Заголовок : Украинский ас3 - Дубляж
Язык : Ukrainian
ServiceKind/String : Complete Main
Default : Нет
Forced : Нет

Аудио #10
Идентификатор : 11
Формат : TrueHD
Профиль формата : TrueHD+Atmos / TrueHD
Идентификатор кодека : A_TRUEHD
Продолжительность : 2 ч. 16 м.
Вид битрейта : Переменный
Битрейт : 4431 Кбит/сек
Максимальный битрейт : 5958 Кбит/сек
Каналы : Object Based / 8 каналов
Расположение каналов : Object Based / Front: L C R, Side: L R, Back: L R, LFE
Частота : / 48,0 КГц
Частота кадров : 1200,000 кадров/сек (40 SPF)
Метод сжатия : Без потерь
Размер потока : 4,23 Гбайт (7%)
Заголовок : Английский TrueHD - Оригинал
Язык : English
Default : Нет
Forced : Нет

Текст #1
Идентификатор : 12
Формат : UTF-8
Идентификатор кодека : S_TEXT/UTF8
Идентификатор кодека/Информация : UTF-8 Plain Text
Продолжительность : 2 ч. 8 м.
Битрейт : 1 бит/сек
ElementCount : 34
Размер потока : 1,29 Кбайт (0%)
Заголовок : Русские - форс.
Язык : Russian
Default : Да
Forced : Нет

Текст #2
Идентификатор : 13
Формат : UTF-8
Идентификатор кодека : S_TEXT/UTF8
Идентификатор кодека/Информация : UTF-8 Plain Text
Продолжительность : 2 ч. 6 м.
Битрейт : 87 бит/сек
ElementCount : 1541
Размер потока : 81,3 Кбайт (0%)
Заголовок : Русские
Язык : Russian
Default : Нет
Forced : Нет

Текст #3
Идентификатор : 14
Формат : UTF-8
Идентификатор кодека : S_TEXT/UTF8
Идентификатор кодека/Информация : UTF-8 Plain Text
Продолжительность : 29 м. 21 с.
Битрейт : 19 бит/сек
ElementCount : 57
Размер потока : 4,30 Кбайт (0%)
Заголовок : Украинские - форс.
Язык : Ukrainian
Default : Нет
Forced : Нет

Текст #4
Идентификатор : 15
Формат : UTF-8
Идентификатор кодека : S_TEXT/UTF8
Идентификатор кодека/Информация : UTF-8 Plain Text
Продолжительность : 3 м. 42 с.
Битрейт : 4 бит/сек
ElementCount : 6
Размер потока : 116 байт (0%)
Заголовок : Английские - Форс.
Язык : English
Default : Нет
Forced : Нет

Текст #5
Идентификатор : 16
Формат : UTF-8
Идентификатор кодека : S_TEXT/UTF8
Идентификатор кодека/Информация : UTF-8 Plain Text
Продолжительность : 2 ч. 13 м.
Битрейт : 57 бит/сек
ElementCount : 1630
Размер потока : 56,2 Кбайт (0%)
Заголовок : Английские
Язык : English
Default : Нет
Forced : Нет

Текст #6
Идентификатор : 17
Формат : UTF-8
Идентификатор кодека : S_TEXT/UTF8
Идентификатор кодека/Информация : UTF-8 Plain Text
Продолжительность : 2 ч. 13 м.
Битрейт : 63 бит/сек
ElementCount : 1906
Размер потока : 62,4 Кбайт (0%)
Заголовок : Английские - SDH
Язык : English
Default : Нет
Forced : Нет

Текст #7
Идентификатор : 18
Формат : UTF-8
Идентификатор кодека : S_TEXT/UTF8
Идентификатор кодека/Информация : UTF-8 Plain Text
Продолжительность : 2 ч. 13 м.
Битрейт : 78 бит/сек
ElementCount : 1906
Размер потока : 76,6 Кбайт (0%)
Заголовок : Английские - SDH Colored
Язык : English
Default : Нет
Forced : Нет

Меню
00:00:00.000 : :00:00:00.000
00:12:14.721 : :00:12:35.713
00:17:08.598 : :00:17:29.590
00:23:14.797 : :00:23:35.789
00:32:24.847 : :00:32:45.839
00:40:58.151 : :00:41:19.143
00:46:54.674 : :00:47:15.666
00:55:51.419 : :00:56:12.411
01:04:04.703 : :01:04:25.695
01:11:06.916 : :01:11:27.908
01:20:04.078 : :01:20:25.070
01:27:52.713 : :01:28:13.705
01:35:32.923 : :01:35:53.915
01:41:14.055 : :01:41:35.047
01:53:16.861 : :01:53:37.853
02:02:01.593 : :02:02:22.585


pic pic pic
Для увеличения картинки щелкните мышкой по превью



pic pic pic pic pic pic

Этот торрент недоступен для скачивания без регистрации, однако доступен по публичной magnet-ссылке (источники с публичных трекеров). Перед использованием ссылки прочтите, пожалуйста Пользовательское соглашение, а также как можно дольше оставайтесь на раздаче! Для того, чтобы скачать сам торрент-файл (который видит больше источников), а также для того, чтобы поблагодарить релизера, вам необходимо зарегистрироваться. Если регистрироваться лень - вы можете также попробовать скачать релиз по нашим партнерским ссылкам ниже. Кроме того, зарегистрированным пользователям не показывается всплывающая реклама при скачивании.

[underverse.me].t99573.torrent
Трекер: Зарегистрирован   [ 09.03.2018 10:19 ]  

Статус: проверено (by 90ytr90 at 09.03.2018 20:45)
Поблагодарили: пока никто не поблагодарил...
Тип торрента: публичный - доступные источники с открытых трекеров: 
Размер: 61,9 GB (занимает 14,14 DVDR, для записи нужно 15 болванок DVDR/RW)
 
 
Похожие темы
Форум Тема Автор Торрент Отв. Посл. сооб.
Зарубежное кино [DVDRip, Low-Res HDRip, и т.д.] Валериан и город тысячи планет / Valerian and the City of a Thousand Planets (Люк Бессон / Luc Besson) [2017 г., фантастика, фэнтези, боевик, приключения, BDRip-AVC] Dub + Original (Eng) + Sub (Rus,... 90ytr90
35 | 5

0 | 265

20

05.03.2018 12:04

* Зарубежное кино [DVDRip, Low-Res HDRip, и т.д.] Валериан и город тысячи планет / Valerian and the City of a Thousand Planets (Люк Бессон / Luc Besson) [2017 г., фантастика, фэнтези, боевик, приключения, BDRip-AVC] [локализованная версия] Dub + Sub... 90ytr90
3 | 3

0 | 178

15

05.03.2018 12:01

* Зарубежное кино [DVDRip, Low-Res HDRip, и т.д.] Валериан и город тысячи планет / Valerian and the City of a Thousand Planets (Люк Бессон) [2017 г., фантастика, фэнтези, боевик, приключения, BDRip-AVC] Dub + Sub (Rus) 90ytr90
18 | 3

0 | 167

10

05.03.2018 11:59

* Зарубежное кино [DVDRip, Low-Res HDRip, и т.д.] Валериан и город тысячи планет / Valerian and the City of a Thousand Planets (Люк Бессон) [2017 г., фантастика, фэнтези, боевик, приключения, BDRip] [локализованная версия] Dub + hardsub (Rus) 90ytr90
102 | 4

0 | 155

7

05.03.2018 11:58

* Зарубежное кино [DVDRip, Low-Res HDRip, и т.д.] Валериан и город тысячи планет / Valerian and the City of a Thousand Planets (Люк Бессон) [2017 г., фантастика, фэнтези, боевик, приключения, BDRip] [локализованная версия] Dub + hardsub (Rus) 90ytr90
159 | 7

0 | 185

11

05.03.2018 11:56

* Зарубежное кино [DVDRip, Low-Res HDRip, и т.д.] Валериан и город тысячи планет / Valerian and the City of a Thousand Planets (Люк Бессон / Luc Besson) [2017 г., фантастика, фэнтези, боевик, приключения, BDRip-AVC] [NOR Transfer] Dub + Original... 90ytr90
34 | 7

0 | 135

3

05.03.2018 11:54

T Зарубежное кино [DVDRip, Low-Res HDRip, и т.д.] Валериан и город тысячи планет / Valerian and the City of a Thousand Planets (Люк Бессон) [2017 г., фантастика, фэнтези, боевик, приключения, HDRip] Dub (Line) makkol
49 | 0

0 | 1142

61

09.11.2017 22:02

T Зарубежное кино [DVDRip, Low-Res HDRip, и т.д.] Валериан и город тысячи планет / Valerian and the City of a Thousand Planets (Люк Бессон) [2017 г., фантастика, фэнтези, боевик, приключения, HDTVRip] Dub (звук с TS) makkol
83 | 0

0 | 942

22

01.11.2017 21:20

T Зарубежное кино [DVDRip, Low-Res HDRip, и т.д.] Валериан и город тысячи планет / Valerian and the City of a Thousand Planets (Люк Бессон) [2017 г., фантастика, фэнтези, боевик, приключения, WEB-DLRip] MVO (@MUZOBOZ@) makkol
17 | 0

0 | 1419

57

03.11.2017 21:28

T Зарубежное кино [DVDRip, Low-Res HDRip, и т.д.] Валериан и город тысячи планет / Valerian and the City of a Thousand Planets (Люк Бессон) [2017 г., фантастика, фэнтези, боевик, приключения, HDRip] Dub (Line) makkol
301 | 2

0 | 1345

81

09.11.2017 22:17


Яндекс.Метрика powered by Sphinx


В Н И М А Н И Е
Сайт не распространяет и не хранит электронные версии произведений, а лишь бесплатно и без коммерческой выгоды (не требуя взамен платы,
SMS и т.д.) предоставляет доступ к создаваемому пользователями каталогу ссылок на торрент-файлы, которые содержат только списки хеш-сумм.
Убедительная просьба с жалобами обращаться напрямую к пользователю, разместившему торрент файл.

Вверх