Loading...
Error

Конг: Остров черепа / Kong: Skull Island (Джордан Вот-Робертс / Jordan Vogt-Roberts) [2017 г., фантастика, фэнтези, боевик, приключения, BDRemux 1080p] 2xDub (Rus) + 4xAVO (Гаврилов, Сербин, Дохалов, Живов) + Original (Eng) + Sub (Rus, Eng)

Статистика раздачи
Размер:  46,46 GB   |    Зарегистрирован:  3 месяца 12 дней   |    Скачан:  8 раз

Полного источника не было: 16 дней

Сидов:  0  |  0 KB/s  ]   Личеров:  0  |  0 KB/s  ]

* - сиды/пиры с внешних источников

   
 
Автор Сообщение

90ytr90 

09-Мар-2018 14:41

Конг: Остров черепа / Kong: Skull Island
«Пробуждение Кинг-Конга»

Страна: США, Вьетнам
Год выпуска: 2017
Жанр: фантастика, фэнтези, боевик, приключения
Продолжительность: 01:58:23
Озвучивание:
  • профессиональное (полное дублирование) [Sergesha]
  • профессиональное (полное дублирование) [лицензия]
  • авторское (одноголосое закадровое) [Гаврилов]
  • авторское (одноголосое закадровое) [Сербин]
  • авторское (одноголосое закадровое) [Дохалов]
  • авторское (одноголосое закадровое) [Живов]
  • оригинальная звуковая дорожка [английский]
  • оригинальная звуковая дорожка [английский]
  • оригинальная звуковая дорожка [английский]

Режиссёр: Джордан Вот-Робертс / Jordan Vogt-Roberts

В ролях: Том Хиддлстон (James Conrad), Сэмюэл Л. Джексон (Preston Packard), Джон Гудман (Bill Randa), Бри Ларсон (Mason Weaver), Цзин Тянь (San), Тоби Кеббелл (Jack Chapman / Kong (motion capture)), Джон Ортис (Victor Nieves), Кори Хоукинс (Houston Brooks), Джейсон Митчелл (Mills), Ши Уигхэм (Cole), Томас Манн (Slivko), Терри Нотари (Kong)


Сюжет фильма:
На неизвестный остров в Тихом океане попадает команда ученых, военных и искателей приключений. Они вторгаются во владения могучего Конга и тем самым развязывают сражение между человеком и природой. Очень скоро исследовательская миссия превращается в игру на выживание, ее участники вынуждены буквально прорубать себе путь к спасению.

  • Дата мировой премьеры: 28 февраля 2017
  • Дата российской премьеры: 9 марта 2017, «Каро-Премьер» 3D
             
Качество видео: BDRemux 1080p
Формат: MKV
Видео: AVC, 1920x1080 (16:9), 23.8 Mbps, 23.976 (24000/1001) fps, 0.479 bit/pixel
Аудио #1: DTS-HD MA, 5469 kbps/1509 kbps, 8 ch/6 ch, 48 kHz, Dub [Sergesha]
Аудио #2: AC3, 448 kbps, 6 ch, 48 kHz, Dub [лицензия]
Аудио #3: DTS-HD MA, 5580 kbps/1509 kbps, 8 ch/6 ch, 48 kHz, AVO [Гаврилов]
Аудио #4: DTS-HD MA, 5585 kbps/1509 kbps, 8 ch/6 ch, 48 kHz, AVO [Сербин]
Аудио #5: DTS-HD MA, 3840 kbps/1509 kbps, 6 ch, 48 kHz, AVO [Дохалов]
Аудио #6: DTS-HD MA, 4247 kbps/1509 kbps, 8 ch/6 ch, 48 kHz, AVO [Живов]
Аудио #7: TrueHD, 6912 kbps, 8 ch, 48 kHz, Original [English]
Аудио #8: DTS-HD MA, 2360 kbps/1509 kbps, 6 ch, 48 kHz, Original [English]
Аудио #9: AC3, 448 kbps, 6 ch, 48 kHz, Original [English]
Субтитры: Russian (forced, full), English (full)
Навигация по главам: есть (13)



Общее
Уникальный идентификатор : 234488868310109487773740163686536806719 (0xB068E9CEB5B69B029A2AFFB5FBFF813F)
Полное имя : D:\РЕМУКС!!!!!\Конг. Остров черепа.BDRemux.mkv
Формат : Matroska
Версия формата : Version 4 / Version 2
Размер файла : 46,5 Гбайт
Продолжительность : 1 ч. 58 м.
Режим общего битрейта : Переменный
Общий поток : 56,2 Мбит/сек
Название фильма : Конг. Остров черепа.BDRemux.thx:SPOMOPS
Дата кодирования : UTC 2018-03-09 12:41:08
Программа кодирования : mkvmerge v8.3.0 ('Over the Horizon') 64bit
Библиотека кодирования : libebml v1.3.1 + libmatroska v1.4.2

Видео
Идентификатор : 1
Формат : AVC
Формат/Информация : Advanced Video Codec
Профиль формата : High@L4.1
Настройки формата : CABAC / 4 Ref Frames
Параметр CABAC формата : Да
Параметр RefFrames формата : 4 кадра
Идентификатор кодека : V_MPEG4/ISO/AVC
Продолжительность : 1 ч. 58 м.
Вид битрейта : Переменный
Битрейт : 23,8 Мбит/сек
Максимальный битрейт : 28,0 Мбит/сек
Ширина : 1920 пикселей
Высота : 1080 пикселей
Соотношение сторон : 16:9
Режим частоты кадров : Постоянный
Частота кадров : 23,976 (24000/1001) кадра/сек
Цветовое пространство : YUV
Субдискретизация насыщенности : 4:2:0
Битовая глубина : 8 бит
Тип развёртки : Прогрессивная
Бит/(Пиксели*Кадры) : 0.479
Размер потока : 19,7 Гбайт (42%)
Заголовок : MPEG-4 AVC, 24085 Кбит/с, 1920x1080, 23.976 кадр/с
Default : Да
Forced : Нет

Аудио #1
Идентификатор : 2
Формат : DTS
Формат/Информация : Digital Theater Systems
Профиль формата : MA / Core
Идентификатор кодека : A_DTS
Продолжительность : 1 ч. 58 м.
Вид битрейта : Переменный / Постоянный
Битрейт : 5469 Кбит/сек / 1509 Кбит/сек
Каналы : 8 каналов / 6 каналов
Расположение каналов : Front: L C R, Side: L R, Back: L R, LFE / Front: L C R, Side: L R, LFE
Частота : 48,0 КГц
Частота кадров : 93,750 кадра/сек (512 SPF)
Битовая глубина : 24 бит
Метод сжатия : Без потерь / Lossy
Размер потока : 4,52 Гбайт (10%)
Заголовок : Русский - Дубляж DTS-HD MA
Язык : Russian
Default : Да
Forced : Нет

Аудио #2
Идентификатор : 3
Формат : AC-3
Формат/Информация : Audio Coding 3
Идентификатор кодека : A_AC3
Продолжительность : 1 ч. 58 м.
Вид битрейта : Постоянный
Битрейт : 448 Кбит/сек
Каналы : 6 каналов
Расположение каналов : Front: L C R, Side: L R, LFE
Частота : 48,0 КГц
Частота кадров : 31,250 кадров/сек (1536 SPF)
Битовая глубина : 16 бит
Метод сжатия : С потерями
Размер потока : 379 Мбайт (1%)
Заголовок : Русский - Дубляж AC3
Язык : Russian
ServiceKind/String : Complete Main
Default : Нет
Forced : Нет

Аудио #3
Идентификатор : 4
Формат : DTS
Формат/Информация : Digital Theater Systems
Профиль формата : MA / Core
Идентификатор кодека : A_DTS
Продолжительность : 1 ч. 58 м.
Вид битрейта : Переменный / Постоянный
Битрейт : 5580 Кбит/сек / 1509 Кбит/сек
Каналы : 8 каналов / 6 каналов
Расположение каналов : Front: L C R, Side: L R, Back: L R, LFE / Front: L C R, Side: L R, LFE
Частота : 48,0 КГц
Частота кадров : 93,750 кадра/сек (512 SPF)
Битовая глубина : 24 бит
Метод сжатия : Без потерь / Lossy
Размер потока : 4,61 Гбайт (10%)
Заголовок : Русский DTS-HD MA - АП (Гаврилов)
Язык : Russian
Default : Нет
Forced : Нет

Аудио #4
Идентификатор : 5
Формат : DTS
Формат/Информация : Digital Theater Systems
Профиль формата : MA / Core
Идентификатор кодека : A_DTS
Продолжительность : 1 ч. 58 м.
Вид битрейта : Переменный / Постоянный
Битрейт : 5585 Кбит/сек / 1509 Кбит/сек
Каналы : 8 каналов / 6 каналов
Расположение каналов : Front: L C R, Side: L R, Back: L R, LFE / Front: L C R, Side: L R, LFE
Частота : 48,0 КГц
Частота кадров : 93,750 кадра/сек (512 SPF)
Битовая глубина : 24 бит
Метод сжатия : Без потерь / Lossy
Размер потока : 4,62 Гбайт (10%)
Заголовок : Русский DTS-HD MA - АП (Сербин)
Язык : Russian
Default : Нет
Forced : Нет

Аудио #5
Идентификатор : 6
Формат : DTS
Формат/Информация : Digital Theater Systems
Профиль формата : MA / Core
Идентификатор кодека : A_DTS
Продолжительность : 1 ч. 58 м.
Вид битрейта : Переменный / Постоянный
Битрейт : 3840 Кбит/сек / 1509 Кбит/сек
Каналы : 6 каналов
Расположение каналов : Front: L C R, Side: L R, LFE
Частота : 48,0 КГц
Частота кадров : 93,750 кадра/сек (512 SPF)
Битовая глубина : 24 бит
Метод сжатия : Без потерь / Lossy
Размер потока : 3,23 Гбайт (7%)
Заголовок : Русский - АП (Дохалов) DTS-HD MA
Язык : Russian
Default : Нет
Forced : Нет

Аудио #6
Идентификатор : 7
Формат : DTS
Формат/Информация : Digital Theater Systems
Профиль формата : MA / Core
Идентификатор кодека : A_DTS
Продолжительность : 1 ч. 58 м.
Вид битрейта : Переменный / Постоянный
Битрейт : 4247 Кбит/сек / 1509 Кбит/сек
Каналы : 8 каналов / 6 каналов
Расположение каналов : Front: L C R, Side: L R, Back: L R, LFE / Front: L C R, Side: L R, LFE
Частота : 48,0 КГц
Частота кадров : 93,750 кадра/сек (512 SPF)
Битовая глубина : 24 бит
Метод сжатия : Без потерь / Lossy
Размер потока : 3,51 Гбайт (8%)
Заголовок : Русский DTS-HD MA - АП (Живов)
Язык : Russian
Default : Нет
Forced : Нет

Аудио #7
Идентификатор : 8
Формат : TrueHD
Профиль формата : TrueHD+Atmos / TrueHD
Идентификатор кодека : A_TRUEHD
Продолжительность : 1 ч. 58 м.
Вид битрейта : Переменный
Битрейт : 4219 Кбит/сек
Максимальный битрейт : 6912 Кбит/сек
Каналы : Object Based / 8 каналов
Расположение каналов : Object Based / Front: L C R, Side: L R, Back: L R, LFE
Частота : / 48,0 КГц
Частота кадров : 1200,000 кадров/сек (40 SPF)
Метод сжатия : Без потерь
Размер потока : 3,49 Гбайт (8%)
Заголовок : Английский - Оригинал TrueHD
Язык : English
Default : Нет
Forced : Нет

Аудио #8
Идентификатор : 9
Формат : DTS
Формат/Информация : Digital Theater Systems
Профиль формата : MA / Core
Идентификатор кодека : A_DTS
Продолжительность : 1 ч. 58 м.
Вид битрейта : Переменный / Постоянный
Битрейт : 2360 Кбит/сек / 1509 Кбит/сек
Каналы : 6 каналов
Расположение каналов : Front: L C R, Side: L R, LFE
Частота : 48,0 КГц
Частота кадров : 93,750 кадра/сек (512 SPF)
Битовая глубина : 16 бит
Метод сжатия : Без потерь / Lossy
Размер потока : 1,95 Гбайт (4%)
Заголовок : Английский - Оригинал DTS-HD MA
Язык : English
Default : Нет
Forced : Нет

Аудио #9
Идентификатор : 10
Формат : AC-3
Формат/Информация : Audio Coding 3
Идентификатор кодека : A_AC3
Продолжительность : 1 ч. 58 м.
Вид битрейта : Постоянный
Битрейт : 448 Кбит/сек
Каналы : 6 каналов
Расположение каналов : Front: L C R, Side: L R, LFE
Частота : 48,0 КГц
Частота кадров : 31,250 кадров/сек (1536 SPF)
Битовая глубина : 16 бит
Метод сжатия : С потерями
Размер потока : 380 Мбайт (1%)
Заголовок : Английский - Оригинал AC3
Язык : English
ServiceKind/String : Complete Main
Default : Нет
Forced : Нет

Текст #1
Идентификатор : 11
Формат : UTF-8
Идентификатор кодека : S_TEXT/UTF8
Идентификатор кодека/Информация : UTF-8 Plain Text
Продолжительность : 1 ч. 57 м.
Битрейт : 3 бит/сек
ElementCount : 66
Размер потока : 3,31 Кбайт (0%)
Заголовок : Русские - Форс.
Язык : Russian
Default : Да
Forced : Нет

Текст #2
Идентификатор : 12
Формат : UTF-8
Идентификатор кодека : S_TEXT/UTF8
Идентификатор кодека/Информация : UTF-8 Plain Text
Продолжительность : 1 ч. 57 м.
Битрейт : 76 бит/сек
ElementCount : 1264
Размер потока : 65,3 Кбайт (0%)
Заголовок : Русские
Язык : Russian
Default : Нет
Forced : Нет

Текст #3
Идентификатор : 13
Формат : UTF-8
Идентификатор кодека : S_TEXT/UTF8
Идентификатор кодека/Информация : UTF-8 Plain Text
Продолжительность : 1 ч. 54 м.
Битрейт : 46 бит/сек
ElementCount : 974
Размер потока : 39,0 Кбайт (0%)
Заголовок : Английские
Язык : English
Default : Нет
Forced : Нет

Меню
00:00:00.000 : :Chapter 01
00:08:54.742 : :Chapter 02
00:19:51.773 : :Chapter 03
00:30:01.132 : :Chapter 04
00:40:00.106 : :Chapter 05
00:50:13.260 : :Chapter 06
01:00:49.729 : :Chapter 07
01:10:29.600 : :Chapter 08
01:18:05.889 : :Chapter 09
01:30:12.657 : :Chapter 10
01:39:09.026 : :Chapter 11
01:47:05.836 : :Chapter 12
01:58:23.179 : :Chapter 13


pic pic pic
Для увеличения картинки щелкните мышкой по превью



pic pic pic pic pic pic

Этот торрент недоступен для скачивания без регистрации, однако доступен по публичной magnet-ссылке (источники с публичных трекеров). Перед использованием ссылки прочтите, пожалуйста Пользовательское соглашение, а также как можно дольше оставайтесь на раздаче! Для того, чтобы скачать сам торрент-файл (который видит больше источников), а также для того, чтобы поблагодарить релизера, вам необходимо зарегистрироваться. Если регистрироваться лень - вы можете также попробовать скачать релиз по нашим партнерским ссылкам ниже. Кроме того, зарегистрированным пользователям не показывается всплывающая реклама при скачивании.

[underverse.me].t99596.torrent
Трекер: Зарегистрирован   [ 09.03.2018 14:41 ]  

Статус: проверено (by 90ytr90 at 09.03.2018 19:56)
Поблагодарили: пока никто не поблагодарил...
Тип торрента: публичный - доступные источники с открытых трекеров: 
Размер: 46,46 GB (занимает 10,61 DVDR, для записи нужно 11 болванок DVDR/RW)
 
 
Похожие темы
Форум Тема Автор Торрент Отв. Посл. сооб.
Зарубежное кино [DVDRip, Low-Res HDRip, и т.д.] Конг: Остров черепа / Kong: Skull Island (Джордан Вот-Робертс / Jordan Vogt-Roberts) [2017 г., фантастика, фэнтези, боевик, приключения, HDRip] Dub + Sub (Rus) 90ytr90
126 | 6

0 | 699

27

23.06.2017 00:07

Зарубежное кино [DVDRip, Low-Res HDRip, и т.д.] Конг: Остров черепа / Kong: Skull Island (Джордан Вот-Робертс / Jordan Vogt-Roberts) [2017 г., фантастика, фэнтези, боевик, приключения, HDRip] Dub + Original (Eng) + Sub (Rus) 90ytr90
9 | 3

0 | 297

2

23.06.2017 00:12

Зарубежное кино [DVDRip, Low-Res HDRip, и т.д.] Конг: Остров черепа / Kong: Skull Island (Джордан Вот-Робертс / Jordan Vogt-Roberts) [2017 г., фантастика, фэнтези, боевик, приключения, HDRip] Dub + Sub (Rus) 90ytr90
42 | 3

0 | 683

3

23.06.2017 08:02

Зарубежное кино [DVDRip, Low-Res HDRip, и т.д.] Конг: Остров черепа / Kong: Skull Island (Джордан Вот-Робертс / Jordan Vogt-Roberts) [2017 г., фантастика, фэнтези, боевик, приключения, BDRip-AVC] Dub + Original (Eng) + Sub (Rus, Eng) 90ytr90
31 | 3

0 | 524

6

26.06.2017 17:07

Зарубежное кино [DVDRip, Low-Res HDRip, и т.д.] Конг: Остров черепа / Kong: Skull Island (Джордан Вот-Робертс / Jordan Vogt-Roberts) [2017 г., фантастика, фэнтези, боевик, приключения, BDRip-AVC] Dub + Sub (Rus) 90ytr90
74 | 3

0 | 569

12

29.06.2017 10:25

T Зарубежное кино [HDDVDRip / BDRip / WEB-DL / HDTV 1080/720р] Конг: Остров черепа / Kong: Skull Island (Джордан Вот-Робертс) [2017 г., фантастика, фэнтези, боевик, приключения, HDTVRip 1080p] Dub (звук с TS) makkol
5 | 3

0 | 1200

25

07.04.2017 21:56

T Зарубежное кино [HDDVDRip / BDRip / WEB-DL / HDTV 1080/720р] Конг: Остров черепа / Kong: Skull Island (Джордан Вот-Робертс) [2017 г., фантастика, фэнтези, боевик, приключения, HDTVRip 1080p] MVO (Синема УС) makkol
11 | 3

0 | 2637

60

09.04.2017 13:57

T Зарубежное кино [HDDVDRip / BDRip / WEB-DL / HDTV 1080/720р] Конг: Остров черепа / Kong: Skull Island (Джордан Вот-Робертс) [2017 г., фантастика, фэнтези, боевик, приключения, HDTVRip 1080p] Dub (Line) makkol
3 | 2

0 | 1746

38

23.04.2017 22:20

T Зарубежное кино [HDDVDRip / BDRip / WEB-DL / HDTV 1080/720р] Конг: Остров черепа / Kong: Skull Island (Джордан Вот-Робертс) [2017 г., фантастика, фэнтези, боевик, приключения, WEB-DL 1080p] Dub (iTunes) + Original + Sub makkol
41 | 2

0 | 871

29

20.06.2017 21:29

% Зарубежное кино [HDDVDRip / BDRip / WEB-DL / HDTV 1080/720р] Конг: Остров черепа / Kong: Skull Island (Джордан Вот-Робертс / Jordan Vogt-Roberts) [2017 г., фантастика, фэнтези, боевик, приключения, BDRip 1080p] Dub + Original (Eng) + Sub (Rus, Eng) 90ytr90
23 | 1

0 | 578

15

23.06.2017 06:29

profesy 

15-Мар-2018 17:25

добрый день
а рип поменьше будет? 5,10?

90ytr90 

16-Мар-2018 17:25

Конг: Остров черепа

Яндекс.Метрика powered by Sphinx


В Н И М А Н И Е
Сайт не распространяет и не хранит электронные версии произведений, а лишь бесплатно и без коммерческой выгоды (не требуя взамен платы,
SMS и т.д.) предоставляет доступ к создаваемому пользователями каталогу ссылок на торрент-файлы, которые содержат только списки хеш-сумм.
Убедительная просьба с жалобами обращаться напрямую к пользователю, разместившему торрент файл.

Вверх