Loading...
Error

Иностранец / The Foreigner (Мартин Кэмпбелл / Martin Campbell) [2017 г., боевик, триллер, драма, криминал, детектив, BDRemux 1080p] Dub (iTunes) + Original (Eng) + Sub (Eng)

Статистика раздачи
Размер:  28,56 GB   |    Зарегистрирован:  3 месяца 14 дней   |    Скачан:  4 раза

Полного источника не было: 2 месяца 29 дней

Сидов:  0  |  0 KB/s  ]   Личеров:  0  |  0 KB/s  ]

* - сиды/пиры с внешних источников

   
 
Автор Сообщение

90ytr90 

10-Мар-2018 11:22

Иностранец / The Foreigner
«Иногда месть — это лучшая справедливость»

Страна: Великобритания, Китай, США
Год выпуска: 2017
Жанр: боевик, триллер, драма, криминал, детектив
Продолжительность: 01:53:52
Озвучивание:
  • профессиональное (полное дублирование) [iTunes]
  • оригинальная звуковая дорожка [английский]

Режиссёр: Мартин Кэмпбелл / Martin Campbell

В ролях: Джеки Чан (Quan Ngoc Minh), Пирс Броснан (Liam Hennessy), Майкл МакЭлхаттон (Jim Kavanagh), Лю Тао (Lam), Чарли Мерфи (Maggie / Sara McKay), Орла Брэйди (Mary Hennessy), Кэти Льюнг (Fan), Рэй Фиарон (Commander Richard Bromley), Руфус Джонс (Ian Wood), Марк Тэнди (Simpson), Джон Кронин (Denis Fisher), Каолан Бирн (McCormick)


Сюжет фильма:
Бывший спецагент, ветеран вьетнамской войны Цюань давно сложил оружие и завел мирную жизнь. Но после того, как в теракте прямо на глазах погибает его дочь-подросток, видя, что власти не спешат разыскивать преступников, Цюань сам начинает поиск убийцы. Он пойдет на все, чтобы совершить праведное возмездие…

  • Дата мировой премьеры: 24 сентября 2017
  • Дата российской премьеры: 30 ноября 2017, «Парадиз»
             
Качество видео: BDRemux 1080p]
Формат: MKV
Видео: AVC, 1920x1080 (16:9), mode:Variable, 31.4 Mbps, 35 Mbps, 23.976 (24000/1001) fps, 0.633 bit/pixel
Аудио #1: AC3, 384 kbps, 6 ch, 48 kHz, Dub [iTunes]
Аудио #2: DTS-HD MA, 4076 kbps/1509 kbps, 8 ch/6 ch, 48 kHz, Original [English]
Субтитры: English
Навигация по главам: есть (20)

Rip by СелезеньS

General
Unique ID : 185836511257232084305426940134900754367 (0x8BCECF67E55ADBD06508170E73C1E7BF)
Complete name : G:VideoSSDThe.Foreigner.2017.BDREMUX.1080p.ExKinoRay.mkv
Format : Matroska
Format version : Version 4 / Version 2
File size : 28.6 GiB
Duration : 1 h 53 min
Overall bit rate mode : Variable
Overall bit rate : 35.9 Mb/s
Movie name : The Foreigner [url=//zarutor.org/tag/1/2017]2017[/url] from ExKinoRay
Encoded date : UTC [url=//zarutor.org/tag/1/2017]2017[/url]-12-31 10:00:16
Writing application : mkvmerge v19.0.0 ('Brave Captain') 64-bit
Writing library : libebml v1.3.5 + libmatroska v1.4.8

Video
ID : 1
Format : AVC
Format/Info : Advanced Video Codec
Format profile : High@L4.1
Format settings : CABAC / 4 Ref Frames
Format settings, CABAC : Yes
Format settings, ReFrames : 4 frames
Codec ID : V_MPEG4/ISO/AVC
Duration : 1 h 53 min
Bit rate mode : Variable
Bit rate : 31.4 Mb/s
Maximum bit rate : 35.0 Mb/s
Width : 1 920 pixels
Height : 1 080 pixels
Display aspect ratio : 16:9
Frame rate mode : Constant
Frame rate : 23.976 (24000/1001) FPS
Color space : YUV
Chroma subsampling : 4:2:0
Bit depth : 8 bits
Scan type : Progressive
Bits/(Pixel*Frame) : 0.633
Stream size : 25.0 GiB (88%)
Language : English
Default : Yes
Forced : No

Audio #1
ID : 2
Format : AC-3
Format/Info : Audio Coding 3
Codec ID : A_AC3
Duration : 1 h 53 min
Bit rate mode : Constant
Bit rate : 384 kb/s
Channel(s) : 6 channels
Channel positions : Front: L C R, Side: L R, LFE
Sampling rate : 48.0 kHz
Frame rate : 31.250 FPS (1536 SPF)
Bit depth : 16 bits
Compression mode : Lossy
Stream size : 313 MiB (1%)
Title : iTunes
Language : Russian
Service kind : Complete Main
Default : Yes
Forced : No

Audio #2
ID : 3
Format : DTS
Format/Info : Digital Theater Systems
Format profile : MA / Core
Codec ID : A_DTS
Duration : 1 h 53 min
Bit rate mode : Variable / Constant
Bit rate : 4 076 kb/s / 1 509 kb/s
Channel(s) : 8 channels / 6 channels
Channel positions : Front: L C R, Side: L R, Back: L R, LFE / Front: L C R, Side: L R, LFE
Sampling rate : 48.0 kHz
Frame rate : 93.750 FPS (512 SPF)
Bit depth : 24 bits
Compression mode : Lossless / Lossy
Stream size : 3.24 GiB (11%)
Title : Original
Language : English
Default : No
Forced : No

Text
ID : 4
Format : UTF-8
Codec ID : S_TEXT/UTF8
Codec ID/Info : UTF-8 Plain Text
Duration : 1 h 44 min
Bit rate : 52 b/s
Count of elements : 1212
Stream size : 40.3 KiB (0%)
Title : Full
Language : English
Default : No
Forced : No

Menu
00:00:00.000 : en:00:00:00.000
00:08:19.541 : en:00:08:19.541
00:15:49.574 : en:00:15:49.574
00:21:47.765 : en:00:21:47.765
00:27:04.164 : en:00:27:04.164
00:32:09.511 : en:00:32:09.511
00:35:24.164 : en:00:35:24.164
00:38:30.934 : en:00:38:30.934
00:43:50.169 : en:00:43:50.169
00:47:38.189 : en:00:47:38.189
00:54:10.497 : en:00:54:10.497
01:01:42.324 : en:01:01:42.324
01:08:07.333 : en:01:08:07.333
01:14:14.033 : en:01:14:14.033
01:18:42.927 : en:01:18:42.927
01:23:26.877 : en:01:23:26.877
01:29:18.812 : en:01:29:18.812
01:38:55.012 : en:01:38:55.012
01:43:45.928 : en:01:43:45.928
01:47:09.298 : en:01:47:09.298


pic pic pic
Для увеличения картинки щелкните мышкой по превью



pic pic pic pic pic

Этот торрент недоступен для скачивания без регистрации, однако доступен по публичной magnet-ссылке (источники с публичных трекеров). Перед использованием ссылки прочтите, пожалуйста Пользовательское соглашение, а также как можно дольше оставайтесь на раздаче! Для того, чтобы скачать сам торрент-файл (который видит больше источников), а также для того, чтобы поблагодарить релизера, вам необходимо зарегистрироваться. Если регистрироваться лень - вы можете также попробовать скачать релиз по нашим партнерским ссылкам ниже. Кроме того, зарегистрированным пользователям не показывается всплывающая реклама при скачивании.

[underverse.me].t99641.torrent
Трекер: Зарегистрирован   [ 10.03.2018 11:22 ]  

Статус: поглощено (by 90ytr90 at 31.03.2018 13:08)
Поблагодарили: пока никто не поблагодарил...
Тип торрента: публичный - доступные источники с открытых трекеров: 
Размер: 28,56 GB (занимает 6,52 DVDR, для записи нужно 7 болванок DVDR/RW)
 
 
Похожие темы
Форум Тема Автор Торрент Отв. Посл. сооб.
T Зарубежное кино [DVDRip, Low-Res HDRip, и т.д.] Иностранец / The Foreigner (Мартин Кэмпбелл) [2017 г., боевик, триллер, драма, WEBRip] MVO (Колобок) makkol
43 | 0

0 | 2949

54

29.11.2017 21:56

Зарубежное кино [DVDRip, Low-Res HDRip, и т.д.] Иностранец / The Foreigner (Мартин Кэмпбелл / Martin Campbell) [2017 г., боевик, триллер, драма, криминал, детектив, BDRip] Dub 90ytr90
835 | 22

0 | 979

17

31.03.2018 12:39

Зарубежное кино [DVDRip, Low-Res HDRip, и т.д.] Иностранец / The Foreigner (Мартин Кэмпбелл / Martin Campbell) [2017 г., боевик, триллер, драма, криминал, детектив, BDRip-AVC] Dub + Sub (Rus) 90ytr90
3 | 0

0 | 313

7

31.03.2018 12:44

Зарубежное кино [DVDRip, Low-Res HDRip, и т.д.] Иностранец / The Foreigner (Мартин Кэмпбелл / Martin Campbell) [2017 г., боевик, триллер, драма, криминал, детектив, BDRip-AVC] Dub + Original (Eng) + Sub (Rus, Eng) 90ytr90
5 | 1

0 | 299

2

31.03.2018 12:47

Зарубежное кино [DVDRip, Low-Res HDRip, и т.д.] Иностранец / The Foreigner (Мартин Кэмпбелл / Martin Campbell) [2017 г., боевик, триллер, драма, криминал, детектив, BDRip] Dub 90ytr90
9 | 1

0 | 370

7

31.03.2018 13:18

Зарубежное кино [DVD / HDDVD / BD / Remux] Иностранец / The Foreigner (Мартин Кэмпбелл / Martin Campbell) [2017 г., боевик, триллер, драма, криминал, детектив, BDRemux 1080p] [US Transfer] Dub + Original (Eng) + Sub (Rus, Eng) 90ytr90
7 | 0

0 | 282

0

31.03.2018 13:08

Зарубежное кино [DVD / HDDVD / BD / Remux] Иностранец / The Foreigner (Мартин Кэмпбелл / Martin Campbell) [2017 г., боевик, триллер, драма, криминал, детектив, BDRemux 1080p] Dub + 3xAVO (Карповский, Живов, Чадов) + Original (Eng) + Sub (Rus,... 90ytr90
2 | 0

0 | 326

6

31.03.2018 13:14

T Зарубежное кино [HDDVDRip / BDRip / WEB-DL / HDTV 1080/720р] Иностранец / The Foreigner (Мартин Кэмпбелл) [2017 г., боевик, триллер, драма, WEBRip 1080p] MVO (Колобок) makkol
42 | 0

0 | 4664

64

30.11.2017 10:24

T Зарубежное кино [HDDVDRip / BDRip / WEB-DL / HDTV 1080/720р] Иностранец / The Foreigner (Мартин Кэмпбелл) [2017 г., боевик, триллер, драма, WEB-DL 1080p] Dub (iTunes) + Original makkol
45 | 0

0 | 2398

59

26.12.2017 11:03

Зарубежное кино [HDDVDRip / BDRip / WEB-DL / HDTV 1080/720р] Иностранец / The Foreigner (Мартин Кэмпбелл / Martin Campbell) [2017 г., боевик, триллер, драма, криминал, детектив, BDRip 720p] Dub + Original (Eng) + Sub (Rus, Eng) 90ytr90
163 | 5

0 | 826

10

31.03.2018 12:50

31-Мар-2018 13:08

Топик был перенесен из форума Зарубежное кино [DVD / HDDVD / BD / Remux] в форум Для поглощенных раздач

Причина переноса: http://underverse.me/viewtopic.php?t=99145
90ytr90
 

Яндекс.Метрика powered by Sphinx


В Н И М А Н И Е
Сайт не распространяет и не хранит электронные версии произведений, а лишь бесплатно и без коммерческой выгоды (не требуя взамен платы,
SMS и т.д.) предоставляет доступ к создаваемому пользователями каталогу ссылок на торрент-файлы, которые содержат только списки хеш-сумм.
Убедительная просьба с жалобами обращаться напрямую к пользователю, разместившему торрент файл.

Вверх