Loading...
Error

Иностранец / The Foreigner (Мартин Кэмпбелл / Martin Campbell) [2017 г., боевик, триллер, драма, криминал, детектив, BDRemux 1080p] Dub (iTunes) + 3xAVO (Карповский, Живов, Чадов) + Original (Eng) + Sub (Rus, Eng)

Статистика раздачи
Размер:  38,38 GB   |    Зарегистрирован:  3 месяца 12 дней   |    Скачан:  2 раза

Полного источника не было: 2 месяца 20 дней

Сидов:  0  |  0 KB/s  ]   Личеров:  0  |  0 KB/s  ]

* - сиды/пиры с внешних источников

   
 
Автор Сообщение

90ytr90 

10-Мар-2018 12:07

Иностранец / The Foreigner
«Иногда месть — это лучшая справедливость»

Страна: Великобритания, Китай, США
Год выпуска: 2017
Жанр: боевик, триллер, драма, криминал, детектив
Продолжительность: 01:53:52
Озвучивание:
  • профессиональное (полное дублирование) [iTunes]
  • авторское (одноголосое закадровое) [Карповский]
  • авторское (одноголосое закадровое) [Живов]
  • авторское (одноголосое закадровое) [Чадов, без цензуры]
  • оригинальная звуковая дорожка [английский]

Режиссёр: Мартин Кэмпбелл / Martin Campbell

В ролях: Джеки Чан (Quan Ngoc Minh), Пирс Броснан (Liam Hennessy), Майкл МакЭлхаттон (Jim Kavanagh), Лю Тао (Lam), Чарли Мерфи (Maggie / Sara McKay), Орла Брэйди (Mary Hennessy), Кэти Льюнг (Fan), Рэй Фиарон (Commander Richard Bromley), Руфус Джонс (Ian Wood), Марк Тэнди (Simpson), Джон Кронин (Denis Fisher), Каолан Бирн (McCormick)


Сюжет фильма:
Бывший спецагент, ветеран вьетнамской войны Цюань давно сложил оружие и завел мирную жизнь. Но после того, как в теракте прямо на глазах погибает его дочь-подросток, видя, что власти не спешат разыскивать преступников, Цюань сам начинает поиск убийцы. Он пойдет на все, чтобы совершить праведное возмездие…

  • Дата мировой премьеры: 24 сентября 2017
  • Дата российской премьеры: 30 ноября 2017, «Парадиз»
             
Качество видео: BDRemux 1080p
Формат: MKV
Видео: AVC, 1920x1080 (16:9), 31.4 Mbps, 23.976 (24000/1001) fps, 0.633 bit/pixel
Аудио #1: AC3, 384 kbps, 6 ch, 48 kHz, Dub [iTunes]
Аудио #2: DTS-HD MA, 4046 kbps/1509 kbps, 8 ch/6 ch, 48 kHz, AVO [Карповский]
Аудио #3: DTS-HD MA, 4157 kbps/1509 kbps, 8 ch/6 ch, 48 kHz, AVO [Живов]
Аудио #4: DTS-HD MA, 4129 kbps/1509 kbps, 8 ch/6 ch, 48 kHz, AVO [Чадов, без цензуры]
Аудио #5: DTS-HD MA, 4076 kbps/1509 kbps, 8 ch/6 ch, 48 kHz, Original [English]
Субтитры: Russian (full), English (full, SDH, SDH-Colored)
Навигация по главам: есть (20)



Общее
Уникальный идентификатор : 183162282779223476576763041500550138250 (0x89CBC5C32108F29682042F79FEAC098A)
Полное имя : D:\РЕМУКС!!!!!\Иностранец. BDRemux.mkv
Формат : Matroska
Версия формата : Version 4 / Version 2
Размер файла : 38,4 Гбайт
Продолжительность : 1 ч. 53 м.
Режим общего битрейта : Переменный
Общий поток : 48,2 Мбит/сек
Название фильма : Иностранец BDRemux.thx:SPOMOPS.
Дата кодирования : UTC 2018-03-10 04:32:50
Программа кодирования : mkvmerge v8.3.0 ('Over the Horizon') 64bit
Библиотека кодирования : libebml v1.3.1 + libmatroska v1.4.2
Attachments : The-Foreigner.jpg

Видео
Идентификатор : 1
Формат : AVC
Формат/Информация : Advanced Video Codec
Профиль формата : High@L4.1
Настройки формата : CABAC / 4 Ref Frames
Параметр CABAC формата : Да
Параметр RefFrames формата : 4 кадра
Идентификатор кодека : V_MPEG4/ISO/AVC
Продолжительность : 1 ч. 53 м.
Вид битрейта : Переменный
Битрейт : 31,4 Мбит/сек
Максимальный битрейт : 35,0 Мбит/сек
Ширина : 1920 пикселей
Высота : 1080 пикселей
Соотношение сторон : 16:9
Режим частоты кадров : Постоянный
Частота кадров : 23,976 (24000/1001) кадра/сек
Цветовое пространство : YUV
Субдискретизация насыщенности : 4:2:0
Битовая глубина : 8 бит
Тип развёртки : Прогрессивная
Бит/(Пиксели*Кадры) : 0.633
Размер потока : 25,0 Гбайт (65%)
Язык : English
Default : Да
Forced : Нет

Аудио #1
Идентификатор : 2
Формат : AC-3
Формат/Информация : Audio Coding 3
Идентификатор кодека : A_AC3
Продолжительность : 1 ч. 53 м.
Вид битрейта : Постоянный
Битрейт : 384 Кбит/сек
Каналы : 6 каналов
Расположение каналов : Front: L C R, Side: L R, LFE
Частота : 48,0 КГц
Частота кадров : 31,250 кадров/сек (1536 SPF)
Битовая глубина : 16 бит
Метод сжатия : С потерями
Размер потока : 313 Мбайт (1%)
Заголовок : Русский ас3 - дубляж
Язык : Russian
ServiceKind/String : Complete Main
Default : Да
Forced : Нет

Аудио #2
Идентификатор : 3
Формат : DTS
Формат/Информация : Digital Theater Systems
Профиль формата : MA / Core
Идентификатор кодека : A_DTS
Продолжительность : 1 ч. 53 м.
Вид битрейта : Переменный / Постоянный
Битрейт : 4046 Кбит/сек / 1509 Кбит/сек
Каналы : 8 каналов / 6 каналов
Расположение каналов : Front: L C R, Side: L R, Back: L R, LFE / Front: L C R, Side: L R, LFE
Частота : 48,0 КГц
Частота кадров : 93,750 кадра/сек (512 SPF)
Битовая глубина : 24 бит
Метод сжатия : Без потерь / Lossy
Размер потока : 3,22 Гбайт (8%)
Заголовок : Русский DTS-HD MA - АП (Карповский)
Язык : Russian
Default : Нет
Forced : Нет

Аудио #3
Идентификатор : 4
Формат : DTS
Формат/Информация : Digital Theater Systems
Профиль формата : MA / Core
Идентификатор кодека : A_DTS
Продолжительность : 1 ч. 53 м.
Вид битрейта : Переменный / Постоянный
Битрейт : 4157 Кбит/сек / 1509 Кбит/сек
Каналы : 8 каналов / 6 каналов
Расположение каналов : Front: L C R, Side: L R, Back: L R, LFE / Front: L C R, Side: L R, LFE
Частота : 48,0 КГц
Частота кадров : 93,750 кадра/сек (512 SPF)
Битовая глубина : 24 бит
Метод сжатия : Без потерь / Lossy
Размер потока : 3,31 Гбайт (9%)
Заголовок : Русский DTS-HD MA - АП (Живов)
Язык : Russian
Default : Нет
Forced : Нет

Аудио #4
Идентификатор : 5
Формат : DTS
Формат/Информация : Digital Theater Systems
Профиль формата : MA / Core
Идентификатор кодека : A_DTS
Продолжительность : 1 ч. 53 м.
Вид битрейта : Переменный / Постоянный
Битрейт : 4129 Кбит/сек / 1509 Кбит/сек
Каналы : 8 каналов / 6 каналов
Расположение каналов : Front: L C R, Side: L R, Back: L R, LFE / Front: L C R, Side: L R, LFE
Частота : 48,0 КГц
Частота кадров : 93,750 кадра/сек (512 SPF)
Битовая глубина : 24 бит
Метод сжатия : Без потерь / Lossy
Размер потока : 3,28 Гбайт (9%)
Заголовок : Русский DTS-HD MA - АП (Чадов)
Язык : Russian
Default : Нет
Forced : Нет

Аудио #5
Идентификатор : 6
Формат : DTS
Формат/Информация : Digital Theater Systems
Профиль формата : MA / Core
Идентификатор кодека : A_DTS
Продолжительность : 1 ч. 53 м.
Вид битрейта : Переменный / Постоянный
Битрейт : 4076 Кбит/сек / 1509 Кбит/сек
Каналы : 8 каналов / 6 каналов
Расположение каналов : Front: L C R, Side: L R, Back: L R, LFE / Front: L C R, Side: L R, LFE
Частота : 48,0 КГц
Частота кадров : 93,750 кадра/сек (512 SPF)
Битовая глубина : 24 бит
Метод сжатия : Без потерь / Lossy
Размер потока : 3,24 Гбайт (8%)
Заголовок : Английский DTS-HD MA - Оригинал
Язык : English
Default : Нет
Forced : Нет

Текст #1
Идентификатор : 7
Формат : UTF-8
Идентификатор кодека : S_TEXT/UTF8
Идентификатор кодека/Информация : UTF-8 Plain Text
Продолжительность : 1 ч. 44 м.
Битрейт : 89 бит/сек
ElementCount : 1135
Размер потока : 68,6 Кбайт (0%)
Заголовок : Русские
Язык : Russian
Default : Нет
Forced : Нет

Текст #2
Идентификатор : 8
Формат : UTF-8
Идентификатор кодека : S_TEXT/UTF8
Идентификатор кодека/Информация : UTF-8 Plain Text
Продолжительность : 1 ч. 44 м.
Битрейт : 53 бит/сек
ElementCount : 1143
Размер потока : 41,0 Кбайт (0%)
Заголовок : Английские
Язык : English
Default : Нет
Forced : Нет

Текст #3
Идентификатор : 9
Формат : UTF-8
Идентификатор кодека : S_TEXT/UTF8
Идентификатор кодека/Информация : UTF-8 Plain Text
Продолжительность : 1 ч. 44 м.
Битрейт : 58 бит/сек
ElementCount : 1387
Размер потока : 44,6 Кбайт (0%)
Заголовок : Английские - (SDH)
Язык : English
Default : Нет
Forced : Нет

Текст #4
Идентификатор : 10
Формат : UTF-8
Идентификатор кодека : S_TEXT/UTF8
Идентификатор кодека/Информация : UTF-8 Plain Text
Продолжительность : 1 ч. 44 м.
Битрейт : 69 бит/сек
ElementCount : 1391
Размер потока : 53,3 Кбайт (0%)
Заголовок : Английские - (SDH-Colored)
Язык : English
Default : Нет
Forced : Нет

Меню
00:00:00.000 : en:00:00:00.000
00:08:19.540 : en:00:08:19.540
00:15:49.572 : en:00:15:49.572
00:21:47.763 : en:00:21:47.763
00:27:04.163 : en:00:27:04.163
00:32:09.509 : en:00:32:09.509
00:35:24.163 : en:00:35:24.163
00:38:30.932 : en:00:38:30.932
00:43:50.168 : en:00:43:50.168
00:47:38.188 : en:00:47:38.188
00:54:10.496 : en:00:54:10.496
01:01:42.322 : en:01:01:42.322
01:08:07.333 : en:01:08:07.333
01:14:14.032 : en:01:14:14.032
01:18:42.926 : en:01:18:42.926
01:23:26.876 : en:01:23:26.876
01:29:18.810 : en:01:29:18.810
01:38:55.011 : en:01:38:55.011
01:43:45.927 : en:01:43:45.927
01:47:09.296 : en:01:47:09.296


pic pic pic
Для увеличения картинки щелкните мышкой по превью



pic pic pic pic pic pic

Этот торрент недоступен для скачивания без регистрации, однако доступен по публичной magnet-ссылке (источники с публичных трекеров). Перед использованием ссылки прочтите, пожалуйста Пользовательское соглашение, а также как можно дольше оставайтесь на раздаче! Для того, чтобы скачать сам торрент-файл (который видит больше источников), а также для того, чтобы поблагодарить релизера, вам необходимо зарегистрироваться. Если регистрироваться лень - вы можете также попробовать скачать релиз по нашим партнерским ссылкам ниже. Кроме того, зарегистрированным пользователям не показывается всплывающая реклама при скачивании.

[underverse.me].t99648.torrent
Трекер: Зарегистрирован   [ 10.03.2018 12:07 ]  

Статус: поглощено (by 90ytr90 at 31.03.2018 13:16)
Поблагодарили: пока никто не поблагодарил...
Тип торрента: публичный - доступные источники с открытых трекеров: 
Размер: 38,38 GB (занимает 8,77 DVDR, для записи нужно 9 болванок DVDR/RW)
 
 
Похожие темы
Форум Тема Автор Торрент Отв. Посл. сооб.
T Зарубежное кино [DVDRip, Low-Res HDRip, и т.д.] Иностранец / The Foreigner (Мартин Кэмпбелл) [2017 г., боевик, триллер, драма, WEBRip] MVO (Колобок) makkol
41 | 0

0 | 2940

54

29.11.2017 21:56

Зарубежное кино [DVDRip, Low-Res HDRip, и т.д.] Иностранец / The Foreigner (Мартин Кэмпбелл / Martin Campbell) [2017 г., боевик, триллер, драма, криминал, детектив, BDRip] Dub 90ytr90
751 | 21

0 | 968

17

31.03.2018 12:39

Зарубежное кино [DVDRip, Low-Res HDRip, и т.д.] Иностранец / The Foreigner (Мартин Кэмпбелл / Martin Campbell) [2017 г., боевик, триллер, драма, криминал, детектив, BDRip-AVC] Dub + Sub (Rus) 90ytr90
3 | 0

0 | 309

7

31.03.2018 12:44

Зарубежное кино [DVDRip, Low-Res HDRip, и т.д.] Иностранец / The Foreigner (Мартин Кэмпбелл / Martin Campbell) [2017 г., боевик, триллер, драма, криминал, детектив, BDRip-AVC] Dub + Original (Eng) + Sub (Rus, Eng) 90ytr90
5 | 1

0 | 294

2

31.03.2018 12:47

Зарубежное кино [DVDRip, Low-Res HDRip, и т.д.] Иностранец / The Foreigner (Мартин Кэмпбелл / Martin Campbell) [2017 г., боевик, триллер, драма, криминал, детектив, BDRip] Dub 90ytr90
7 | 0

0 | 363

7

31.03.2018 13:18

Зарубежное кино [DVD / HDDVD / BD / Remux] Иностранец / The Foreigner (Мартин Кэмпбелл / Martin Campbell) [2017 г., боевик, триллер, драма, криминал, детектив, BDRemux 1080p] [US Transfer] Dub + Original (Eng) + Sub (Rus, Eng) 90ytr90
1 | 0

0 | 278

0

31.03.2018 13:08

Зарубежное кино [DVD / HDDVD / BD / Remux] Иностранец / The Foreigner (Мартин Кэмпбелл / Martin Campbell) [2017 г., боевик, триллер, драма, криминал, детектив, BDRemux 1080p] Dub + 3xAVO (Карповский, Живов, Чадов) + Original (Eng) + Sub (Rus,... 90ytr90
2 | 0

0 | 323

6

31.03.2018 13:14

T Зарубежное кино [HDDVDRip / BDRip / WEB-DL / HDTV 1080/720р] Иностранец / The Foreigner (Мартин Кэмпбелл) [2017 г., боевик, триллер, драма, WEBRip 1080p] MVO (Колобок) makkol
42 | 0

0 | 4662

64

30.11.2017 10:24

T Зарубежное кино [HDDVDRip / BDRip / WEB-DL / HDTV 1080/720р] Иностранец / The Foreigner (Мартин Кэмпбелл) [2017 г., боевик, триллер, драма, WEB-DL 1080p] Dub (iTunes) + Original makkol
45 | 0

0 | 2395

59

26.12.2017 11:03

Зарубежное кино [HDDVDRip / BDRip / WEB-DL / HDTV 1080/720р] Иностранец / The Foreigner (Мартин Кэмпбелл / Martin Campbell) [2017 г., боевик, триллер, драма, криминал, детектив, BDRip 720p] Dub + Original (Eng) + Sub (Rus, Eng) 90ytr90
183 | 6

0 | 819

9

31.03.2018 12:50

31-Мар-2018 13:16

Топик был перенесен из форума Зарубежное кино [DVD / HDDVD / BD / Remux] в форум Для поглощенных раздач

Причина переноса: http://underverse.me/viewtopic.php?t=99146
90ytr90
 

Яндекс.Метрика powered by Sphinx


В Н И М А Н И Е
Сайт не распространяет и не хранит электронные версии произведений, а лишь бесплатно и без коммерческой выгоды (не требуя взамен платы,
SMS и т.д.) предоставляет доступ к создаваемому пользователями каталогу ссылок на торрент-файлы, которые содержат только списки хеш-сумм.
Убедительная просьба с жалобами обращаться напрямую к пользователю, разместившему торрент файл.

Вверх