Loading...
Error

Девушка в тумане / La ragazza nella nebbia (Донато Карризи / Donato Carrisi) [2017 г., триллер, криминал, BDRemux 1080p] Dub (iTunes) + Original (Ita) + Sub (Rus, Eng)

Статистика раздачи
Размер:  25,78 GB   |    Зарегистрирован:  3 месяца 14 дней   |    Скачан:  4 раза
Сидов:  1  |  0 KB/s  ]   Личеров:  0  |  0 KB/s  ]

* - сиды/пиры с внешних источников

   
 
Автор Сообщение

90ytr90 

11-Мар-2018 06:04

Девушка в тумане / La ragazza nella nebbia

Страна: Италия, Германия, Франция
Год выпуска: 2017
Жанр: триллер, криминал
Продолжительность: 02:08:18
Озвучивание:
  • профессиональное (полное дублирование) [iTunes]
  • оригинальная звуковая дорожка [итальянский]

Режиссёр: Донато Карризи / Donato Carrisi

В ролях: Тони Сервилло (Agente Vogel), Жан Рено (Augusto Flores), Алессио Бони (Prof. Loris Martini), Лоренцо Рикельми (Agente Borghi), Галатеа Ранци (Stella Honer), Микела Ческон (Agente Mayer), Лукреция Гидоне (Clea), Даниэла Пьяцца (Maria Kastner), Якопо Ольмо Антинори (Mattia), Марина Оккьонеро (Monica), Сабрина Мартина (Priscilla), Антонио Жерарди (Avvocato, Levi)


Сюжет фильма:
Холодной зимней ночью психиатра Аугусто Флореса срочно вызывают на работу, чтобы обследовать попавшего в аварию инспектора Фогеля. Инспектор ничего не помнит, на месте аварии ничто не указывает на ее причину и на ее жертв, однако рубашка Фогеля в пятнах свежей крови, и эта кровь не его. В ходе беседы начинает восстанавливаться цепь невероятных событий, начавшихся месяц назад.

Затерянный в Альпах сонный городок, рождественский вечер, туман. 16-летняя девушка Анна Лу, выйдя из дома, до празднично украшенной церкви так и не дошла. Нет ни тела жертвы, ни каких-либо следов борьбы, ни свидетелей — ничего. Вскоре в городе появляется инспектор Фогель, звезда сыска, специалист по поимке маньяков и серийных убийц...

  • Дата мировой премьеры: 26 октября 2017
  • Дата российской премьеры: 25 января 2018, «Cinema Prestige»
             
Качество видео: BDRemux 1080p
Формат: MKV
Видео: AVC, 1920x1080 (16:9), 26.9 Mbps, 24 fps, 0.540 bit/pixel
Аудио #1: AC3, 384 kbps, 6 ch, 48 kHz, Dub [iTunes]
Аудио #2: DTS, 1509 kbps, 6 ch, 48 kHz, Original [Italian]
Субтитры: Russian (full), English (full)
Навигация по главам: есть (15)
Общее
Уникальный идентификатор : 186041877981046535831163427397072845276 (0x8BF65CC45ECDB4829AD043D9E113F9DC)
Полное имя : La ragazza nella nebbia.2017.BDRemux.mkv
Формат : Matroska
Версия формата : Version 4 / Version 2
Размер файла : 25,8 Гбайт
Продолжительность : 2 ч. 8 м.
Режим общего битрейта : Переменный
Общий поток : 28,8 Мбит/сек
Название фильма : La ragazza nella nebbia.2017.BDRemux
Дата кодирования : UTC 2018-03-10 20:53:52
Программа кодирования : mkvmerge v17.0.0 ('Be Ur Friend') 64-bit
Библиотека кодирования : libebml v1.3.5 + libmatroska v1.4.8

Видео
Идентификатор : 1
Формат : AVC
Формат/Информация : Advanced Video Codec
Профиль формата : High@L4.1
Настройки формата : CABAC / 4 Ref Frames
Параметр CABAC формата : Да
Параметр RefFrames формата : 4 кадра
Параметр GOP формата : M=3, N=12
Идентификатор кодека : V_MPEG4/ISO/AVC
Продолжительность : 2 ч. 8 м.
Вид битрейта : Переменный
Битрейт : 26,9 Мбит/сек
Максимальный битрейт : 34,0 Мбит/сек
Ширина : 1920 пикселей
Высота : 1080 пикселей
Соотношение сторон : 16:9
Режим частоты кадров : Постоянный
Частота кадров : 24,000 кадра/сек
Стандарт вещания : NTSC
Цветовое пространство : YUV
Субдискретизация насыщенности : 4:2:0
Битовая глубина : 8 бит
Тип развёртки : Прогрессивная
Бит/(Пиксели*Кадры) : 0.540
Размер потока : 24,1 Гбайт (93%)
Язык : Italian
Default : Да
Forced : Нет
Цветовой диапазон : Limited
Основные цвета : BT.709
Характеристики трансфера : BT.709
Коэффициенты матрицы : BT.709

Аудио #1
Идентификатор : 2
Формат : AC-3
Формат/Информация : Audio Coding 3
Идентификатор кодека : A_AC3
Продолжительность : 2 ч. 8 м.
Вид битрейта : Постоянный
Битрейт : 384 Кбит/сек
Каналы : 6 каналов
Расположение каналов : Front: L C R, Side: L R, LFE
Частота : 48,0 КГц
Частота кадров : 31,250 кадров/сек (1536 SPF)
Битовая глубина : 16 бит
Метод сжатия : С потерями
Размер потока : 352 Мбайт (1%)
Заголовок : DUB | iTunes
Язык : Russian
ServiceKind : Complete Main
Default : Да
Forced : Нет

Аудио #2
Идентификатор : 3
Формат : DTS
Формат/Информация : Digital Theater Systems
Идентификатор кодека : A_DTS
Продолжительность : 2 ч. 8 м.
Вид битрейта : Постоянный
Битрейт : 1509 Кбит/сек
Каналы : 6 каналов
Расположение каналов : Front: L C R, Side: L R, LFE
Частота : 48,0 КГц
Частота кадров : 93,750 кадра/сек (512 SPF)
Битовая глубина : 24 бит
Метод сжатия : С потерями
Размер потока : 1,35 Гбайт (5%)
Язык : Italian
Default : Нет
Forced : Нет

Текст #1
Идентификатор : 4
Формат : UTF-8
Идентификатор кодека : S_TEXT/UTF8
Идентификатор кодека/Информация : UTF-8 Plain Text
Продолжительность : 1 ч. 59 м.
Битрейт : 77 бит/сек
ElementCount : 1086
Размер потока : 67,6 Кбайт (0%)
Заголовок : Full
Язык : Russian
Default : Нет
Forced : Нет

Текст #2
Идентификатор : 5
Формат : UTF-8
Идентификатор кодека : S_TEXT/UTF8
Идентификатор кодека/Информация : UTF-8 Plain Text
Продолжительность : 1 ч. 59 м.
Битрейт : 45 бит/сек
ElementCount : 1085
Размер потока : 39,9 Кбайт (0%)
Заголовок : Full
Язык : English
Default : Нет
Forced : Нет

Меню
00:00:00.000 : en:Chapter 01
00:06:17.875 : en:Chapter 02
00:15:48.041 : en:Chapter 03
00:22:44.500 : en:Chapter 04
00:31:22.083 : en:Chapter 05
00:39:51.750 : en:Chapter 06
00:47:44.416 : en:Chapter 07
00:54:36.416 : en:Chapter 08
01:01:11.750 : en:Chapter 09
01:11:32.083 : en:Chapter 10
01:18:15.791 : en:Chapter 11
01:27:31.708 : en:Chapter 12
01:38:13.875 : en:Chapter 13
01:47:45.541 : en:Chapter 14
01:57:28.083 : en:Chapter 15


pic pic pic
Для увеличения картинки щелкните мышкой по превью



pic pic pic pic

Этот торрент недоступен для скачивания без регистрации, однако доступен по публичной magnet-ссылке (источники с публичных трекеров). Перед использованием ссылки прочтите, пожалуйста Пользовательское соглашение, а также как можно дольше оставайтесь на раздаче! Для того, чтобы скачать сам торрент-файл (который видит больше источников), а также для того, чтобы поблагодарить релизера, вам необходимо зарегистрироваться. Если регистрироваться лень - вы можете также попробовать скачать релиз по нашим партнерским ссылкам ниже. Кроме того, зарегистрированным пользователям не показывается всплывающая реклама при скачивании.

[underverse.me].t99684.torrent
Трекер: Зарегистрирован   [ 11.03.2018 06:04 ]  

Статус: T временная (by 90ytr90 at 11.03.2018 06:06)
Поблагодарили: пока никто не поблагодарил...
Тип торрента: публичный - доступные источники с открытых трекеров: 
Размер: 25,78 GB (занимает 5,89 DVDR, для записи нужно 6 болванок DVDR/RW)
 
 
Похожие темы
Форум Тема Автор Торрент Отв. Посл. сооб.
* Зарубежное кино [DVDRip, Low-Res HDRip, и т.д.] Девушка в поезде / The Girl on the Train (Тейт Тейлор / Tate Taylor) [2016 г., триллер, детектив, BDRip-AVC] Dub + Sub (Rus) 90ytr90
3 | 0

0 | 193

10

05.03.2018 13:13

* Зарубежное кино [DVDRip, Low-Res HDRip, и т.д.] Девушка в поезде / The Girl on the Train (Тейт Тейлор / Tate Taylor) [2016 г., триллер, детектив, BDRip-AVC] Dub + Original (Eng) + Sub (Rus, Eng) 90ytr90
2 | 0

0 | 143

4

05.03.2018 13:08

* Зарубежное кино [DVDRip, Low-Res HDRip, и т.д.] Девушка в поезде / The Girl on the Train (Тейт Тейлор) [2016 г., триллер, драма, детектив, BDRip] Dub + Original (Eng) 90ytr90
18 | 0

0 | 168

4

05.03.2018 13:07

Зарубежное кино [DVDRip, Low-Res HDRip, и т.д.] Девушка в беде / The Girl Is in Trouble (Джулиус Она) [2015 г., боевик, триллер, драма, WEB-DLRip] DVO + Original makkol
1 | 0

1 | 801

10

27.10.2016 10:01

Зарубежное кино [DVDRip, Low-Res HDRip, и т.д.] Девушка в лесу / Girl in Woods (Джереми Бенсон) [2016 г., ужасы, триллер, драма, WEB-DLRip] VO + Original makkol
3 | 0

0 | 669

7

09.06.2016 15:48

T Зарубежное кино [DVDRip, Low-Res HDRip, и т.д.] Девушка в поезде / The Girl on the Train (Тейт Тейлор / Tate Taylor) [2016 г., триллер, детектив, WEB-DLRip-AVC] Dub (iTunes) + hardsub (Rus) 90ytr90
10 | 0

0 | 1142

23

29.12.2016 08:58

T Зарубежное кино [DVDRip, Low-Res HDRip, и т.д.] Девушка в поезде / The Girl on the Train (Тейт Тейлор) [2016 г., триллер, детектив, WEB-DLRip] Dub (iTunes) + Original makkol
1 | 0

0 | 810

15

28.12.2016 21:28

Зарубежное кино [DVDRip, Low-Res HDRip, и т.д.] Девушка в поезде / The Girl on the Train (Тейт Тейлор / Tate Taylor) [2016 г., триллер, детектив, BDRip] Dub + hardsub (Rus) 90ytr90
1 | 0

0 | 740

6

26.01.2017 17:11

Зарубежное кино [DVDRip, Low-Res HDRip, и т.д.] Девушка в поезде / The Girl on the Train (Тейт Тейлор / Tate Taylor) [2016 г., триллер, детектив, HDRip] Dub + Sub (Rus) 90ytr90
3 | 2

0 | 809

6

26.01.2017 17:16

Зарубежное кино [DVDRip, Low-Res HDRip, и т.д.] Девушка в парке / The Girl in the Park (Дэвид Обёрн / David Auburn) [2007 г., драма, BDRip] MVO + Original (Eng) 90ytr90
1 | 0

0 | 325

1

01.07.2017 21:14


Яндекс.Метрика powered by Sphinx


В Н И М А Н И Е
Сайт не распространяет и не хранит электронные версии произведений, а лишь бесплатно и без коммерческой выгоды (не требуя взамен платы,
SMS и т.д.) предоставляет доступ к создаваемому пользователями каталогу ссылок на торрент-файлы, которые содержат только списки хеш-сумм.
Убедительная просьба с жалобами обращаться напрямую к пользователю, разместившему торрент файл.

Вверх