Loading...
Error

Темные времена / Darkest Hour (Джо Райт / Joe Wright) [2017 г., драма, военный, биография, история, BDRemux 1080p] Dub (iTunes) + Original (Eng) + Sub (Rus, Eng)

Статистика раздачи
Размер:  32,03 GB   |    Зарегистрирован:  3 месяца 5 дней   |    Скачан:  4 раза
Сидов:  1  |  0,4 KB/s  ]   Личеров:  0  |  0 KB/s  ]

* - сиды/пиры с внешних источников

   
 
Автор Сообщение

90ytr90 

14-Мар-2018 21:16

Темные времена / Darkest Hour
«Никогда не сдавайся»

Страна: США, Великобритания
Год выпуска: 2017
Жанр: драма, военный, биография, история
Продолжительность: 02:04:54
Озвучивание:
  • профессиональное (полное дублирование) [iTunes]
  • оригинальная звуковая дорожка [английский]

Режиссёр: Джо Райт / Joe Wright

В ролях: Гари Олдман, Кристин Скотт Томас, Бен Мендельсон, Лили Джеймс, Рональд Пикап, Стивен Диллэйн, Николас Джонс, Сэмюэл Уэст, Дэвид Скофилд, Ричард Ламсден


Сюжет фильма:
История о первом и решающем шаге Уинстона Черчилля на посту премьер-министра Великобритании, получившего власть при чрезвычайных обстоятельствах. Успехи нацистской армии взбудоражили британское сообщество, но вопреки давлению и страху других политиков Черчилль отказывается идти на соглашение с Гитлером.

  • Дата мировой премьеры: 1 сентября 2017
  • Дата российской премьеры: 18 января 2018, «UPI»
             
Качество видео: BDRemux 1080p
Формат: MKV
Видео: AVC, 1920x1080 (16:9), 31.4 Mbps, 23.976 (24000/1001) fps, 0.631 bit/pixel
Аудио #1: AC3, 384 kbps, 6 ch, 48 kHz, Dub [iTunes]
Аудио #2: TrueHD, 6609 kbps, 8 ch, 48 kHz, Original [English]
Аудио #3: AC3, 640 kbps, 6 ch, 48 kHz, Original [English]
Субтитры: Russian (forced, full.focs, full.Leonid55), English (full, SDH, SDH-Colored)
Навигация по главам: есть (20)

Rip by СелезеньS
General
Unique ID : 225271412332899748275147955738801216024 (0xA979B2240DB5AFD80BAEAD3774A61A18)
Complete name : E:VideoDarkest.Hour.2017.BDREMUX.1080p.ExKinoRay.mkv
Format : Matroska
Format version : Version 4 / Version 2
File size : 32.0 GiB
Duration : 2 h 4 min
Overall bit rate mode : Variable
Overall bit rate : 36.7 Mb/s
Movie name : Darkest Hour 2017 from ExKinoRay
Encoded date : UTC 2018-03-14 18:34:37
Writing application : mkvmerge v21.0.0 ('Tardigrades Will Inherit The Earth') 64-bit
Writing library : libebml v1.3.5 + libmatroska v1.4.8

Video
ID : 1
Format : AVC
Format/Info : Advanced Video Codec
Format profile : High@L4.1
Format settings : CABAC / 4 Ref Frames
Format settings, CABAC : Yes
Format settings, ReFrames : 4 frames
Codec ID : V_MPEG4/ISO/AVC
Duration : 2 h 4 min
Bit rate mode : Variable
Bit rate : 31.4 Mb/s
Maximum bit rate : 34.0 Mb/s
Width : 1 920 pixels
Height : 1 080 pixels
Display aspect ratio : 16:9
Frame rate mode : Constant
Frame rate : 23.976 (24000/1001) FPS
Color space : YUV
Chroma subsampling : 4:2:0
Bit depth : 8 bits
Scan type : Progressive
Bits/(Pixel*Frame) : 0.631
Stream size : 27.4 GiB (86%)
Language : English
Default : Yes
Forced : No

Audio #1
ID : 2
Format : AC-3
Format/Info : Audio Coding 3
Codec ID : A_AC3
Duration : 2 h 4 min
Bit rate mode : Constant
Bit rate : 384 kb/s
Channel(s) : 6 channels
Channel positions : Front: L C R, Side: L R, LFE
Sampling rate : 48.0 kHz
Frame rate : 31.250 FPS (1536 SPF)
Bit depth : 16 bits
Compression mode : Lossy
Stream size : 343 MiB (1%)
Title : iTunes
Language : Russian
Service kind : Complete Main
Default : Yes
Forced : Yes

Audio #2
ID : 3
Format : TrueHD
Format profile : TrueHD+Atmos / TrueHD
Codec ID : A_TRUEHD
Duration : 2 h 4 min
Bit rate mode : Variable
Bit rate : 4 218 kb/s
Maximum bit rate : 6 609 kb/s
Channel(s) : Object Based / 8 channels
Channel positions : Object Based / Front: L C R, Side: L R, Back: L R, LFE
Sampling rate : / 48.0 kHz
Frame rate : 1 200.000 FPS (40 SPF)
Compression mode : Lossless
Stream size : 3.68 GiB (11%)
Title : Original
Language : English
Default : No
Forced : No

Audio #3
ID : 4
Format : AC-3
Format/Info : Audio Coding 3
Codec ID : A_AC3
Duration : 2 h 4 min
Bit rate mode : Constant
Bit rate : 640 kb/s
Channel(s) : 6 channels
Channel positions : Front: L C R, Side: L R, LFE
Sampling rate : 48.0 kHz
Frame rate : 31.250 FPS (1536 SPF)
Bit depth : 16 bits
Compression mode : Lossy
Stream size : 572 MiB (2%)
Language : English
Service kind : Complete Main
Default : No
Forced : No

Text #1
ID : 5
Format : UTF-8
Codec ID : S_TEXT/UTF8
Codec ID/Info : UTF-8 Plain Text
Duration : 1 h 58 min
Bit rate : 1 b/s
Count of elements : 19
Stream size : 1.64 KiB (0%)
Title : Forced
Language : Russian
Default : Yes
Forced : Yes

Text #2
ID : 6
Format : UTF-8
Codec ID : S_TEXT/UTF8
Codec ID/Info : UTF-8 Plain Text
Duration : 1 h 59 min
Bit rate : 105 b/s
Count of elements : 1680
Stream size : 91.6 KiB (0%)
Title : Full [focs]
Language : Russian
Default : No
Forced : No

Text #3
ID : 7
Format : UTF-8
Codec ID : S_TEXT/UTF8
Codec ID/Info : UTF-8 Plain Text
Duration : 1 h 59 min
Bit rate : 111 b/s
Count of elements : 1795
Stream size : 97.8 KiB (0%)
Title : Full [Leonid55]
Language : Russian
Default : No
Forced : No

Text #4
ID : 8
Format : UTF-8
Codec ID : S_TEXT/UTF8
Codec ID/Info : UTF-8 Plain Text
Duration : 1 h 57 min
Bit rate : 56 b/s
Count of elements : 1759
Stream size : 48.4 KiB (0%)
Title : Full
Language : English
Default : No
Forced : No

Text #5
ID : 9
Format : UTF-8
Codec ID : S_TEXT/UTF8
Codec ID/Info : UTF-8 Plain Text
Duration : 1 h 57 min
Bit rate : 58 b/s
Count of elements : 1805
Stream size : 49.8 KiB (0%)
Title : SDH
Language : English
Default : No
Forced : No

Text #6
ID : 10
Format : UTF-8
Codec ID : S_TEXT/UTF8
Codec ID/Info : UTF-8 Plain Text
Duration : 1 h 57 min
Bit rate : 68 b/s
Count of elements : 1814
Stream size : 58.4 KiB (0%)
Title : SDH Colored
Language : English
Default : No
Forced : No

Menu
00:00:00.000 : en:00:00:00.000
00:05:20.028 : en:00:05:20.028
00:10:17.951 : en:00:10:17.951
00:13:59.589 : en:00:13:59.589
00:22:33.060 : en:00:22:33.060
00:29:23.178 : en:00:29:23.178
00:37:09.519 : en:00:37:09.519
00:41:04.587 : en:00:41:04.587
00:48:26.904 : en:00:48:26.904
00:56:16.498 : en:00:56:16.498
01:02:38.463 : en:01:02:38.463
01:10:57.003 : en:01:10:57.003
01:18:41.467 : en:01:18:41.467
01:24:05.791 : en:01:24:05.791
01:30:25.629 : en:01:30:25.629
01:35:58.753 : en:01:35:58.753
01:39:33.968 : en:01:39:33.968
01:45:20.105 : en:01:45:20.105
01:52:55.227 : en:01:52:55.227
01:59:45.011 : en:01:59:45.011

Оскар, 2018 год
Номинации (6):
Лучший фильм
Лучшая мужская роль (Гари Олдман)
Лучшая работа оператора
Лучшие костюмы
Лучший грим и прически
Лучшая работа художника-постановщика

Золотой глобус, 2018 год
Победитель (1):
Лучшая мужская роль (драма) ( Гари Олдман )

Премия Гильдии актеров, 2018 год
Победитель (1):
Лучшая мужская роль ( Гари Олдман )


pic pic pic
Для увеличения картинки щелкните мышкой по превью



pic pic pic pic pic

Этот торрент недоступен для скачивания без регистрации, однако доступен по публичной magnet-ссылке (источники с публичных трекеров). Перед использованием ссылки прочтите, пожалуйста Пользовательское соглашение, а также как можно дольше оставайтесь на раздаче! Для того, чтобы скачать сам торрент-файл (который видит больше источников), а также для того, чтобы поблагодарить релизера, вам необходимо зарегистрироваться. Если регистрироваться лень - вы можете также попробовать скачать релиз по нашим партнерским ссылкам ниже. Кроме того, зарегистрированным пользователям не показывается всплывающая реклама при скачивании.

[underverse.me].t99929.torrent
Трекер: Зарегистрирован   [ 14.03.2018 21:16 ]  

Статус: поглощено (by 90ytr90 at 18.05.2018 17:51)
Поблагодарили: пока никто не поблагодарил...
Тип торрента: публичный - доступные источники с открытых трекеров: 
Размер: 32,03 GB (занимает 7,32 DVDR, для записи нужно 8 болванок DVDR/RW)
 
 
Похожие темы
Форум Тема Автор Торрент Отв. Посл. сооб.
T Зарубежное кино [DVDRip, Low-Res HDRip, и т.д.] Темные времена / Darkest Hour (Джо Райт) [2017 г., драма, военный, WEB-DLRip] MVO (@MUZOBOZ@) makkol
25 | 2

0 | 506

17

07.02.2018 13:26

T Зарубежное кино [DVDRip, Low-Res HDRip, и т.д.] Темные времена / Darkest Hour (Джо Райт / Joe Wright) [2017 г., драма, военный, биография, история, HDRip] MVO (@MUZOBOZ@) 90ytr90
5 | 0

0 | 326

11

15.02.2018 21:01

T Зарубежное кино [DVDRip, Low-Res HDRip, и т.д.] Темные времена / Darkest Hour (Джо Райт / Joe Wright) [2017 г., драма, военный, биография, история, HDRip] MVO (@MUZOBOZ@) 90ytr90
5 | 0

0 | 422

21

15.02.2018 21:01

Зарубежное кино [DVDRip, Low-Res HDRip, и т.д.] Темные времена / Darkest Hour (Джо Райт / Joe Wright) [2017 г., драма, военный, биография, история, BDRip] Dub + Sub (Rus) 90ytr90
109 | 4

0 | 215

7

17.05.2018 18:10

Зарубежное кино [DVDRip, Low-Res HDRip, и т.д.] Темные времена / Darkest Hour (Джо Райт / Joe Wright) [2017 г., драма, военный, биография, история, BDRip] Dub + Sub (Rus) 90ytr90
19 | 5

0 | 209

5

17.05.2018 18:39

Зарубежное кино [DVDRip, Low-Res HDRip, и т.д.] Темные времена / Darkest Hour (Джо Райт / Joe Wright) [2017 г., драма, военный, биография, история, BDRip] Dub + hardsub (Rus) 90ytr90
6 | 0

0 | 410

13

18.05.2018 18:06

Зарубежное кино [DVDRip, Low-Res HDRip, и т.д.] Темные времена / Darkest Hour (Джо Райт / Joe Wright) [2017 г., драма, военный, биография, история, BDRip] Dub + hardsub (Rus) 90ytr90
26 | 3

0 | 437

9

18.05.2018 18:11

Зарубежное кино [DVD / HDDVD / BD / Remux] Темные времена / Darkest Hour (Джо Райт / Joe Wright) [2017 г., драма, военный, биография, история, BDRemux 1080p] Dub + Original (Eng) + Sub (Rus, Eng) 90ytr90
13 | 5

0 | 181

1

17.05.2018 18:48

T Зарубежное кино [HDDVDRip / BDRip / WEB-DL / HDTV 1080/720р] Темные времена / Darkest Hour (Джо Райт / Joe Wright) [2017 г., драма, военный, биография, история, BDRip 720p] Dub (iTunes) + Original (Eng) + Sub (Rus, Eng) 90ytr90
70 | 4

0 | 613

24

15.03.2018 04:37

T Зарубежное кино [HDDVDRip / BDRip / WEB-DL / HDTV 1080/720р] Темные времена / Darkest Hour (Джо Райт) [2017 г., драма, военный, WEB-DL 720p] MVO (@MUZOBOZ@) makkol
1 | 2

0 | 496

17

07.02.2018 13:34

18-Май-2018 17:51

Топик был перенесен из форума Зарубежное кино [DVD / HDDVD / BD / Remux] в форум Для поглощенных раздач

Причина переноса: http://underverse.me/viewtopic.php?t=102323
90ytr90
 

Яндекс.Метрика powered by Sphinx


В Н И М А Н И Е
Сайт не распространяет и не хранит электронные версии произведений, а лишь бесплатно и без коммерческой выгоды (не требуя взамен платы,
SMS и т.д.) предоставляет доступ к создаваемому пользователями каталогу ссылок на торрент-файлы, которые содержат только списки хеш-сумм.
Убедительная просьба с жалобами обращаться напрямую к пользователю, разместившему торрент файл.

Вверх