Loading...
Error

Мэри и ведьмин цветок / Meari to majo no hana (Ёнэбаяси Хиромаса) [2017 г., аниме, мультфильм, приключения, фэнтези, BDRip 720] MVO (AlexFilm) + Original (Jap) + Sub (Eng, Jap)

Статистика раздачи
Размер:  4,08 GB   |    Зарегистрирован:  3 месяца 25 дней   |    Скачан:  14 раз
Сидов:  1  |  0 KB/s  ]   Личеров:  0  |  0 KB/s  ]

* - сиды/пиры с внешних источников

   
 
Автор Сообщение

90ytr90 

27-Мар-2018 18:36

Мэри и ведьмин цветок / Meari to majo no hana / メアリと魔女の花


Год выхода: 2017
Жанр: аниме, мультфильм, приключения, фэнтези
Режиссер: Ёнэбаяси Хиромаса / Hiromasa Yonebayashi
Художник: Кубо Томотака, Имай Томоя
Озвучивали: Сугисаки Хана, Камики Рюносукэ, Амами Юки, Кохината Фумиё, Мицусима Хикари, Сато Дзиро, Эндо Кэнъити, Ватанабэ Эри, Отакэ Синобу
Описание:
Скучные каникулы в глухой деревне кажутся юной Мэри сущим наказанием. Но в последнюю неделю лета всё внезапно меняется. Нечаянная находка — дивный цветок — уносит Мэри в далёкое зачарованное царство, в мир, полный невероятных приключений и завораживающих чудес. И этому миру грозит опасность! Вместе с чёрным котом, соседским мальчиком-забиякой и маленькой волшебной метлой ей предстоит пройти через рискованные испытания, спасти жителей сказочной страны, узнать, что такое настоящая дружба и понять: мечты — даже самые необыкновенные — иногда сбываются!

      Imdb    Kinopoisk    World Art    MAL


Страна: Япония
Студия: Studio Ponoc
Продолжительность: 01:42:49
Язык: Русский, Японский
Перевод: Профессиональный (многоголосый закадровый) [AlexFilm]

Качество: BDRip 720p
Формат: MKV
Видео: 1280х692 (1,85:1), 23.976 fps, MPEG-4 AVC ~4800 kbps avg, 0.226 bit/pixel
Аудио RUS: 48 kHz, AC3 Dolby Digital, 3/2 (L,C,R,l,r) + LFE ch, ~384.00 kbps
Аудио JAP: 48 kHz, AC3 Dolby Digital, 3/2 (L,C,R,l,r) + LFE ch, ~384.00 kbps
Субтитры: английские (встроенные полный перевод, PGS)
Субтитры: японские (встроенные полный перевод, PGS)
Релиз от:
Озвучание: Алёна Левичева, Екатерина Муравицкая, Маргарита Корш, Светлана Чистохина, Леонид Дмитриев, Константин Федосеев, Кирилл Патрино, Михаил Федосеев
Монтаж и сведение звука: Михаил Федосеев
Перевод: Константин Кривоногов
General
Format : Matroska
Format version : Version 4 / Version 2
File size : 4.08 GiB
Duration : 1 h 42 min
Overall bit rate : 5 675 kb/s
Movie name : Meari to majo no hana @ AlexFilm
Encoded date : UTC 2018-03-26 12:15:15
Writing application : mkvmerge v7.1.0 ('Good Love') 64bit built on Jul 27 2014 13:06:55
Writing library : libebml v1.3.0 + libmatroska v1.4.1

Video
ID : 1
Format : AVC
Format/Info : Advanced Video Codec
Format profile : High 10@L5
Format settings, CABAC : Yes
Format settings, ReFrames : 6 frames
Codec ID : V_MPEG4/ISO/AVC
Duration : 1 h 42 min
Bit rate : 4 794 kb/s
Width : 1 280 pixels
Height : 692 pixels
Display aspect ratio : 1.85:1
Frame rate mode : Constant
Frame rate : 23.976 (24000/1001) FPS
Color space : YUV
Chroma subsampling : 4:2:0
Bit depth : 10 bits
Scan type : Progressive
Bits/(Pixel*Frame) : 0.226
Stream size : 3.44 GiB (84%)
Title : BDrip by Jensen
Writing library : x264 core 152 r2851 ba24899 (DJATOM's build)
Encoding settings : cabac=1 / ref=6 / deblock=1:1:-1 / analyse=0x3:0x113 / me=umh / subme=9 / psy=1 / psy_rd=1.00:0.00 / mixed_ref=1 / me_range=32 / chroma_me=1 / trellis=2 / 8x8dct=1 / cqm=0 / deadzone=21,11 / fast_pskip=1 / chroma_qp_offset=-2 / threads=22 / lookahead_threads=3 / sliced_threads=0 / nr=0 / decimate=1 / interlaced=0 / bluray_compat=0 / constrained_intra=0 / bframes=9 / b_pyramid=2 / b_adapt=2 / b_bias=0 / direct=1 / weightb=1 / open_gop=0 / weightp=2 / keyint=240 / keyint_min=23 / scenecut=40 / intra_refresh=0 / rc=crf / mbtree=0 / crf=14.0000 / qcomp=0.72 / qpmin=0 / qpmax=81 / qpstep=4 / ip_ratio=1.40 / pb_ratio=1.30 / aq=1:0.85
Language : Japanese
Default : Yes
Forced : No
Color range : Limited
Color primaries : BT.709
Transfer characteristics : BT.709
Matrix coefficients : BT.709
Statistics Tags Issue : mkvmerge v21.0.0 ('Tardigrades Will Inherit The Earth') 64-bit 2018-03-22 21:47:05 / mkvmerge v7.1.0 ('Good Love') 64bit built on Jul 27 2014 13:06:55 2018-03-26 12:15:15
FromStats_BitRate : 4884725
FromStats_Duration : 01:42:49.372000000
FromStats_FrameCount : 147917
FromStats_StreamSize : 3766961306

Audio #1
ID : 2
Format : AC-3
Format/Info : Audio Coding 3
Mode extension : CM (complete main)
Format settings, Endianness : Big
Codec ID : A_AC3
Duration : 1 h 42 min
Bit rate mode : Constant
Bit rate : 384 kb/s
Channel(s) : 6 channels
Channel positions : Front: L C R, Side: L R, LFE
Sampling rate : 48.0 kHz
Frame rate : 31.250 FPS (1536 spf)
Compression mode : Lossy
Stream size : 282 MiB (7%)
Title : DD5.1 AlexFilm
Language : Russian
Default : Yes
Forced : No

Audio #2
ID : 3
Format : AC-3
Format/Info : Audio Coding 3
Mode extension : CM (complete main)
Format settings, Endianness : Big
Codec ID : A_AC3
Duration : 1 h 42 min
Bit rate mode : Constant
Bit rate : 384 kb/s
Channel(s) : 6 channels
Channel positions : Front: L C R, Side: L R, LFE
Sampling rate : 48.0 kHz
Frame rate : 31.250 FPS (1536 spf)
Compression mode : Lossy
Stream size : 282 MiB (7%)
Title : DD5.1 Original
Language : Japanese
Default : No
Forced : No

Text #1
ID : 4
Format : PGS
Muxing mode : zlib
Codec ID : S_HDMV/PGS
Codec ID/Info : Picture based subtitle format used on BDs/HD-DVDs
Title : ENG
Language : English
Default : No
Forced : No
Statistics Tags Issue : mkvmerge v21.0.0 ('Tardigrades Will Inherit The Earth') 64-bit 2018-03-22 21:47:05 / mkvmerge v7.1.0 ('Good Love') 64bit built on Jul 27 2014 13:06:55 2018-03-26 12:15:15
FromStats_BitRate : 24716
FromStats_Duration : 01:42:04.660000000
FromStats_FrameCount : 2028
FromStats_StreamSize : 18922285

Text #2
ID : 5
Format : PGS
Muxing mode : zlib
Codec ID : S_HDMV/PGS
Codec ID/Info : Picture based subtitle format used on BDs/HD-DVDs
Title : JPN
Language : Japanese
Default : No
Forced : No
Statistics Tags Issue : mkvmerge v21.0.0 ('Tardigrades Will Inherit The Earth') 64-bit 2018-03-22 21:47:05 / mkvmerge v7.1.0 ('Good Love') 64bit built on Jul 27 2014 13:06:55 2018-03-26 12:15:15
FromStats_BitRate : 28345
FromStats_Duration : 01:41:53.273000000
FromStats_FrameCount : 3195
FromStats_StreamSize : 21660268

Menu
00:00:00.000 : en:Avant
00:02:46.374 : en:Part A
00:04:12.585 : en:Part B
00:06:44.695 : en:Part C
00:10:22.913 : en:Part D
00:15:35.601 : en:Part E
00:17:37.931 : en:Part F
00:18:45.666 : en:Part G
00:20:54.753 : en:Part H
00:25:37.911 : en:Part I
00:29:44.073 : en:Part J
00:36:10.042 : en:Part K
00:42:03.604 : en:Part L
00:44:16.737 : en:Part M
00:48:06.717 : en:Part N
00:51:04.144 : en:Part O
00:56:40.021 : en:Part P
01:00:12.692 : en:Part Q
01:05:13.868 : en:Part R
01:12:01.191 : en:Part S
01:13:22.648 : en:Part T
01:16:42.931 : en:Part U
01:21:08.905 : en:Part V
01:23:39.013 : en:Part W
01:27:32.372 : en:Part X
01:34:52.353 : en:Part Y
01:37:38.352 : en:ED

Этот торрент недоступен для скачивания без регистрации, однако доступен по публичной magnet-ссылке (источники с публичных трекеров). Перед использованием ссылки прочтите, пожалуйста Пользовательское соглашение, а также как можно дольше оставайтесь на раздаче! Для того, чтобы скачать сам торрент-файл (который видит больше источников), а также для того, чтобы поблагодарить релизера, вам необходимо зарегистрироваться. Если регистрироваться лень - вы можете также попробовать скачать релиз по нашим партнерским ссылкам ниже. Кроме того, зарегистрированным пользователям не показывается всплывающая реклама при скачивании.

[underverse.me].t100838.torrent
Трекер: Зарегистрирован   [ 27.03.2018 18:36 ]  

Статус: © запрещена на территории РФ (by Паукан at 30.03.2018 11:34)
Поблагодарили: пока никто не поблагодарил...
Тип торрента: публичный - доступные источники с открытых трекеров: 
Размер: 4,08 GB (занимает 0,93 DVDR, для записи нужно 1 болванка DVDR/RW)
 
 
Похожие темы
Форум Тема Автор Торрент Отв. Посл. сооб.
© Зарубежные мультфильмы Мэри и ведьмин цветок / Meari to majo no hana (Хиромаса Ёнэбаяси) [2017 г., аниме, мультфильм, приключения, фэнтези, HDRip] Dub (Line) makkol
5 | 0
1,37 GB

0 | 12968

11

27.03.2018 10:43

© Зарубежные мультфильмы Мэри и ведьмин цветок / Meari to majo no hana (Хиромаса Ёнэбаяси) [2017 г., аниме, мультфильм, приключения, фэнтези, HDRip] MVO (AlexFilm) + Original makkol
335 | 1
1,2 GB

0 | 16939

17

27.03.2018 10:50

© Мультфильмы [HDDVDRip / BDRip / WEB-DL / HDTV 1080/720р] Мэри и ведьмин цветок / Meari to majo no hana (Хиромаса Ёнэбаяси) [2017 г., аниме, мультфильм, приключения, фэнтези, BDRip 1080p] MVO (AlexFilm) + Original makkol
51 | 0
7 GB

0 | 13812

19

27.03.2018 11:01

© Новинки мультфильмов [CAMRip, TS, DVDScr, WP, TC] Мэри и ведьмин цветок / Meari to majo no hana (Хиромаса Ёнэбаяси) [2017 г., аниме, мультфильм, приключения, фэнтези, TS] Dub makkol
0 | 0
1,37 GB

1 | 7226

16

10.03.2018 17:21


Яндекс.Метрика powered by Sphinx


В Н И М А Н И Е
Сайт не распространяет и не хранит электронные версии произведений, а лишь бесплатно и без коммерческой выгоды (не требуя взамен платы,
SMS и т.д.) предоставляет доступ к создаваемому пользователями каталогу ссылок на торрент-файлы, которые содержат только списки хеш-сумм.
Убедительная просьба с жалобами обращаться напрямую к пользователю, разместившему торрент файл.

Вверх